Resurrection
Dormir

EXTREME

Level: 9
BPM: 140
Notes: 585

1
口口口口 |----|
口口口口 |----|
口口口口 |----|
口口口口 |----|
2
口口②① |①②③-|
口口③⑦ |④⑤⑥⑦|
口⑤⑥口
④口口口

⑧口口口
⑫⑪⑩口
口口口口 |⑧-⑨-|
口口口⑨ |⑩⑪⑫-|
3
口口口口 |①②③④|
口口口口 |⑤⑥⑦-|
⑤②⑦④
①⑥③口

口口口口
口⑧⑨⑩
口⑪口⑬ |⑧⑨⑩-|
口口⑫口 |⑪⑫⑬-|
4
①②口口 |①②③-|
⑦③口口 |④⑤⑥⑦|
口⑥⑤口
口口口④

口口口⑧
口⑩⑪⑫
口口口口 |⑧-⑨-|
⑨口口口 |⑩⑪⑫-|
5
口口口口 |①②③④|
口口口口 |⑤⑥⑦-|
④⑦②⑤
口③⑥①

⑪⑧口口
⑨⑩口口
⑭口⑫口 |⑧⑨⑩⑪|
口⑬口口 |⑫⑬⑭-|
6
口口②① |①②③-|
口口③⑦ |④⑤⑥⑦|
口⑤⑥口
④口口口

⑧口口口
⑫⑪⑩口
口口口口 |⑧-⑨-|
口口口⑨ |⑩⑪⑫-|
7
口口口口 |①②③④|
口口口口 |⑤⑥⑦-|
⑤②⑦④
①⑥③口

口口⑧⑪
口口⑩⑨
口⑫口⑭ |⑧⑨⑩⑪|
口口⑬口 |⑫⑬⑭-|
8
①②口口 |①②③-|
⑦③口口 |④⑤⑥⑦|
口⑥⑤口
口口口④

口口口⑧
口⑩⑪⑫
口口口口 |⑧-⑨-|
⑨口口口 |⑩⑪⑫-|
9
①②口口 |①②③④|
口口口口 |⑤⑥⑦⑧|
口⑦⑥④
⑧口③⑤

⑬⑬口⑫
口⑩⑪口
⑨口口口 |⑨⑩⑪⑫|
口口口口 |⑬---|
10
口口口口 |①-②-|
口口口口 |③---|
③③②① |----|
口口②① |----|
11
①②口口 |①-②-|
①②③③ |③---|
口口口口 |----|
口口口口 |----|
12
④④口口 |①-②-|
口口②① |③-④-|
③③口口 |----|
口口②① |----|
13
口口口口 |①-②-|
①②口口 |③---|
口口③③ |----|
①②口口 |----|
14
口口①① |①-②-|
口口②② |③---|
口③口口 |----|
口③口口 |----|
15
①①口口 |①-②-|
②②口口 |③---|
口口③口 |----|
口口③口 |----|
16
③口③口 |①-②-|
口口口口 |③---|
口②口② |----|
④①④① |--④-|
17
③口③口 |①-②-|
口①口① |③-④-|
④②④② |----|
口口口口 |----|
18
口口口口 |①-②-|
口口口口 |③---|
③③②①
口口②①

口口口④
口口口口
口口口口 |④---|
口口口⑤ |⑤---|
19
①②口口 |①-②-|
①②③③ |③---|
口口口口
口口口口

⑤口口口
口口口口
口口口口 |④---|
④口口口 |⑤---|
20
④④口口 |①-②-|
口口②① |③-④-|
③③口口
口口②①

口口⑦⑤
口口⑦口
口口口口 |⑤---|
口口口⑥ |⑥-⑦-|
21
口口口口 |①-②-|
①②口口 |③---|
口口③③
①②口口

④口口口
口口口口
口口口口 |④---|
⑤口口口 |⑤---|
22
口口①① |①-②-|
口口②② |③---|
口③口口
口③口口

口口口⑤
口口⑥⑥
口口口口 |④---|
口口口④ |⑤-⑥-|
23
①①口④ |①---|
⑤口⑤口 |②---|
口口②口 |③---|
③口②口 |④-⑤-|
24
③口③口 |①-②-|
口口口口 |③---|
口②口②
口①口①

口口口④
口口口口
口口口口 |④---|
⑥⑤⑥口 |⑤-⑥-|
25
③口③⑤ |①-②-|
口①口① |③-④-|
④②④② |⑤---|
⑥口口口 |⑥---|
26
口口口口 |①-②-|
口④口口 |③-④-|
③③②①
口口②①

口口⑧⑤
口口口口
口口⑧口 |⑤-⑥-|
口⑥口⑦ |⑦-⑧-|
27
①②口口 |①-②-|
①②③③ |③-④-|
口口口口
口口④口

⑦口口口
⑧⑧口口
口口⑥口 |⑤-⑥-|
⑤口口口 |⑦-⑧-|
28
④④口口 |①-②-|
口口②① |③-④-|
③③口口
口口②①

口口⑧⑤
口口⑧口
口口⑥口 |⑤-⑥-|
口口口⑦ |⑦-⑧-|
29
口口口④ |①-②-|
①②口口 |③-④-|
口口③③
①②口口

⑤口口口
口口口口
口口⑧口 |⑤-⑥-|
⑦口⑥口 |⑦-⑧-|
30
口口①① |①-②-|
口口②② |③-④-|
口③口④
口③口口

口口口⑦
⑤口⑧⑧
口口口口 |⑤-⑥-|
口口⑥口 |⑦-⑧-|
31
①①④⑦ |①-②-|
口⑧口口 |③-④-|
口③⑥② |⑤-⑥-|
⑤③口② |⑦-⑧-|
32
③口③口 |①-②-|
口口口口 |③-④-|
④②口②
口①口①

口口口⑤
口口口口
口口⑥口 |⑤-⑥-|
⑧⑦⑧口 |⑦-⑧-|
33
③口③口 |①-②-|
口①口口 |③-④-|
④②④②
口口口口

口口口⑤
口口⑥口
口⑦口口 |⑤-⑥-|
⑧口口口 |⑦-⑧-|
34
⑩①⑫⑨ |①-②-|
口⑪⑧⑬ |③④⑤-|
口⑦④③ |⑥⑦⑧⑨|
⑥②⑤口 |⑩⑪⑫⑬|
35
口①口口 |①-②-|
③口口口 |③④⑤-|
口④口口
口②⑤口

口口口⑨
口⑦⑧⑬
⑥口⑫口 |⑥⑦⑧⑨|
⑩⑪口口 |⑩⑪⑫⑬|
36
①口口口 |①-②-|
③④口口 |③④⑤-|
口⑤口口
口口口②

口口口口
口⑬⑧口
⑥口⑫⑨ |⑥⑦⑧⑨|
口⑦⑪⑩ |⑩⑪⑫⑬|
37
①口口③ |①-②-|
口口④口 |③④⑤-|
口⑤口口
②口口口

⑪口⑦口
⑧⑩口⑫
⑨口口⑥ |⑥⑦⑧⑨|
口口口⑬ |⑩⑪⑫⑬|
38
⑩①⑫⑨ |①-②-|
口⑪⑧⑬ |③④⑤-|
口⑦④③ |⑥⑦⑧⑨|
⑥②⑤口 |⑩⑪⑫⑬|
39
口①口口 |①-②-|
③口口口 |③④⑤-|
口④口口
口②⑤口

口口口⑨
口⑦⑧⑬
⑥口⑫口 |⑥⑦⑧⑨|
⑩⑪口口 |⑩⑪⑫⑬|
40
①口口口 |①-②-|
③④口口 |③④⑤-|
口⑤口口
口口口②

口口口口
口⑬⑧口
⑥口⑫⑨ |⑥⑦⑧⑨|
口⑦⑪⑩ |⑩⑪⑫⑬|
41
①口口③ |①-②-|
口口④口 |③④⑤-|
口⑤口口
②口口口

⑪口⑦口
⑧⑩口⑫
⑨口口⑥ |⑥⑦⑧⑨|
口口口⑬ |⑩⑪⑫⑬|
42
口口口④ |①-②-|
口口口⑧ |③-④-|
⑤⑥③口 |⑤-⑥-|
①②⑦口 |⑦-⑧-|
43
口口口④ |①-②-|
口⑤③口 |③-④-|
②⑦⑥口 |⑤-⑥-|
口①口⑧ |⑦-⑧-|
44
口口口④ |①-②-|
口口口⑧ |③-④-|
⑤⑥③口 |⑤-⑥-|
①②⑦口 |⑦-⑧-|
45
口口④口 |①-②-|
口③口口 |③-④-|
②口口口
口①口口

⑤⑤口口
口口口口
⑥⑥口口 |⑤---|
口口口口 |⑥---|
46
口口口④ |①-②-|
口口口⑧ |③-④-|
⑤⑥③口 |⑤-⑥-|
①②⑦口 |⑦-⑧-|
47
口口口④ |①-②-|
口⑤③口 |③-④-|
②⑦⑥口 |⑤-⑥-|
口①口⑧ |⑦-⑧-|
48
口口口④ |①-②-|
口口口⑧ |③-④-|
⑤⑥③口 |⑤-⑥-|
①②⑦口 |⑦-⑧-|
49
口口④口 |①-②-|
口③口口 |③-④-|
②口口口
口①口口

⑤⑤口口
口口口⑦
⑥⑥口⑦ |⑤---|
口口口口 |⑥-⑦-|
50
口④口⑤ |①-②③|
①④⑥⑪ |④-⑤⑥|
⑩口③⑧ |⑦-⑧⑨|
①⑦⑨② |⑩-⑪-|
51
口口⑤④ |①-②-|
①⑥③口 |③-④-|
⑧⑧口⑦ |⑤-⑥-|
②口口口 |⑦-⑧-|
52
④④口⑤ |①-②③|
①口⑥⑪ |④-⑤⑥|
⑩口③⑧ |⑦-⑧⑨|
①⑦⑨② |⑩-⑪-|
53
口口④口 |①-②-|
①口口口 |③-④-|
口口口③
②口口口

⑤⑤口口
口口口⑦
⑥⑥口⑦ |⑤---|
口口口口 |⑥-⑦-|
54
口④口⑤ |①-②③|
①④⑥⑪ |④-⑤⑥|
⑩口③⑧ |⑦-⑧⑨|
①⑦⑨② |⑩-⑪-|
55
⑥口⑤④ |①-②-|
①⑥③⑦ |③-④-|
口⑧口⑦ |⑤-⑥-|
②口⑧口 |⑦-⑧-|
56
④④口⑤ |①-②③|
①口⑥⑪ |④-⑤⑥|
⑩口③⑧ |⑦-⑧⑨|
①⑦⑨② |⑩-⑪-|
57
⑤⑤④口 |①-②-|
①口口口 |③-④-|
⑥⑥口③ |⑤---|
②口口口 |⑥---|

不確定度: 0

最終更新:2014年12月12日 00:02