passionate fate
Ryu☆

EXTREME

Level: 9
BPM: 149
Notes: 723

1
口口口口 |----|
口口口口 |----|
口口口口 |----|
口口口口 |----|
2
口口口口 |----|
口口口口 |----|
口口口口 |----|
口口口口 |----|
3
①口口③ |①--②|
②口口④ |----|
口口口口 |③--④|
口口口口 |----|
4
⑥⑥口口 |①②③④|
①⑧②口 |⑤-⑥-|
口③⑦④ |⑦⑧--|
⑤口口口 |----|
5
口口口② |①--②|
口④⑤口 |--③-|
口⑥口口 |④---|
③口⑦① |⑤⑥⑦-|
6
口口口② |①--②|
口④⑤口 |--③-|
口⑥口口 |④---|
③口⑦① |⑤⑥⑦-|
7
①口口③ |①--②|
②口口④ |----|
口口口口 |③--④|
口口口口 |----|
8
⑥口口口 |①②③④|
①口②口 |⑤-⑥-|
口③口④
⑤口口口

口口口⑨
⑩⑧口口
口口⑦⑪ |⑦⑧--|
⑫口口口 |⑨⑩⑪⑫|
9
口口④口 |①--②|
口⑤②④ |--③-|
④③⑥口 |④---|
⑦④①口 |⑤⑥⑦-|
10
②口口① |①---|
②口①口 |②---|
口口口①
口口口口

口④口④
口口口口
口口口口 |③---|
④③④口 |④---|
11
②口口口 |----|
口口③口 |--①-|
口④口口 |②-③-|
口口⑤① |④-⑤-|
12
⑤⑤②⑥ |①--②|
③口⑥⑤ |③-④-|
③口④① |⑤--⑥|
⑦①口口 |--⑦-|
13
口④口口 |①-②-|
②口口③ |③-④-|
口①口③
口口①口

⑥口⑤⑤
口⑧口口
⑤⑦口口 |⑤-⑥-|
口口口口 |⑦-⑧-|
14
④④⑤⑤ |①---|
②⑥⑦③ |②-③-|
②⑥④④ |④--⑤|
口①口① |⑥-⑦-|
15
口口口口 |①---|
②口口② |②-③-|
②口③②
①①①①

④口口口
口口⑤口
口⑥口口 |④-⑤-|
口口⑦口 |⑥-⑦-|
16
⑤⑤⑥② |①--②|
③⑦口⑤ |③-④-|
③⑦④① |⑤--⑥|
⑧①口口 |⑦-⑧-|
17
④⑦⑤⑤ |①-②-|
②⑥口③ |③-④-|
⑤⑧口③ |⑤-⑥-|
口①①口 |⑦-⑧-|
18
⑤⑤⑧⑤ |①---|
②⑦④口 |②-③④|
②⑦⑥③ |⑤--⑥|
①①①① |⑦-⑧-|
19
口口口口 |①-②-|
口口口口 |--③-|
③口口口
②①①②

⑥口口④
口口⑤口
口⑥口口 |④-⑤-|
口口⑦口 |⑥-⑦-|
20
口口②口 |①--②|
口口口② |③-④-|
③口口口
①④口①

⑦口口⑥
⑤口⑥⑧
口口⑨⑤ |⑤--⑥|
口口口口 |⑦-⑧⑨|
21
口②②④ |①-②-|
口口④口 |③-④-|
③口口口
①口口①

⑦口口口
⑤⑤口口
口口口⑥ |⑤-⑥-|
口⑦口⑧ |⑦-⑧-|
22
⑦⑧⑧口 |①---|
⑤⑤④③ |②-③④|
②①①口 |⑤--⑥|
①⑥⑥口 |⑦-⑧-|
23
⑥口口④ |①---|
④⑤口口 |②-③-|
②口⑥口 |④-⑤-|
①⑦口③ |⑥-⑦-|
24
口口②⑤ |①--②|
口口⑤② |--③-|
口④⑦⑥ |④--⑤|
①口①③ |--⑥⑦|
25
口②②③ |①-②-|
口口口口 |--③-|
口口口口
①①口口

口口口口
④④口④
口⑤口口 |④-⑤-|
口⑦口⑥ |⑥-⑦-|
26
口②②口 |①--②|
③④④③ |--③④|
口口口口
①口①口

⑦口口⑦
口口口口
⑦⑤⑤⑦ |⑤--⑥|
口⑥⑥口 |--⑦-|
27
口①口口 |--①-|
②口口口 |--②-|
口③口口 |--③-|
④口口口 |--④-|
28
口口④① |①-②-|
口⑤口口 |③-④-|
③口口口 |--⑤-|
口口②⑥ |--⑥-|
29
口口口口 |①-②-|
①口②口 |③-④-|
口③口口
口口④口

口口口⑥
⑦口口口
口口口⑧ |⑤---|
⑤⑨口口 |⑥⑦⑧⑨|
30
④口口口 |①-②-|
口⑤③口 |③-④-|
②口口口 |--⑤-|
⑥口口① |--⑥-|
31
口⑥⑧口 |①②③④|
②口口① |⑤-⑥-|
④口口③ |⑦-⑧-|
口⑦⑨⑤ |⑨---|
32
④口口① |①-②-|
口⑤口口 |③-④-|
口③口口 |--⑤-|
②⑥口口 |--⑥-|
33
口口①② |①-②-|
③口②① |③-④-|
口口④口
口口口口

⑥口口口
口口口⑦
⑧口口口 |⑤---|
⑤口口⑨ |⑥⑦⑧⑨|
34
口口口④ |①-②-|
口③口口 |③-④-|
口口⑤② |--⑤-|
口①口⑥ |--⑥-|
35
口口口口 |①---|
口①①口 |②---|
口口口口
口②②口

④口口③
口⑤⑤口
口⑤⑤口 |③--④|
③口口④ |--⑤-|
36
②口口口 |----|
口口③口 |--①-|
口④口口 |②-③-|
口口⑤① |④-⑤-|
37
口口②口 |①--②|
③口口口 |③-④-|
③口④①
口①口口

⑤⑤口⑥
口⑦⑥⑤
口⑦口口 |⑤--⑥|
⑧⑨口口 |⑦-⑧⑨|
38
⑥④⑤⑤ |①-②-|
②⑧⑦③ |③-④-|
⑤⑦⑦③ |⑤-⑥-|
口口①口 |⑦-⑧-|
39
④④⑤⑤ |①---|
②⑥⑦③ |②-③-|
②⑥④④ |④--⑤|
口①口① |⑥-⑦-|
40
口口口口 |①---|
口口口② |②-③-|
③口口②
①①①口

④口④④
口⑤⑥口
口⑥⑥口 |④-⑤-|
⑦口口口 |⑥-⑦-|
41
口口口② |①--②|
③口口口 |③-④-|
③口口①
口①口④

⑤⑤⑥口
口⑦口⑤
口⑦口口 |⑤--⑥|
⑧⑨口口 |⑦-⑧⑨|
42
④⑦⑤⑤ |①-②-|
②⑥⑦③ |③-④-|
⑤⑧⑦③ |⑤-⑥-|
口口①口 |⑦-⑧-|
43
口口口口 |①---|
口②③口 |--②③|
口口口口
①①①①

⑥④④⑥
口口口口
④⑥⑥④ |④--⑤|
⑤口口⑤ |--⑥-|
44
口口口口 |--①-|
①口口① |--②-|
②③④② |--③-|
口③④口 |④---|
45
①①口口 |①--②|
③口②① |③-④-|
口口口②
口口口④

口口口⑤
口⑤口⑥
⑤口⑥口 |⑤--⑥|
⑦口⑧口 |⑦-⑧-|
46
①②⑧口 |①-②-|
③⑥③口 |③-④-|
⑤④⑦① |⑤-⑥-|
⑦口口⑤ |⑦-⑧-|
47
①①口口 |①--②|
③口②① |③-④-|
口口口②
口口口④

口口口⑤
口⑤口⑥
⑤口⑥口 |⑤--⑥|
⑦口⑧口 |⑦-⑧-|
48
①③⑦口 |①-②-|
口口④口 |③-④-|
口⑤⑥② |⑤--⑥|
⑤①⑦⑥ |--⑦-|
49
口①口口 |①--②|
口②口③ |③-④-|
②口口口
④①口口

⑤口口口
⑥口⑤口
口⑥口⑤ |⑤--⑥|
口⑧口⑦ |⑦-⑧-|
50
口⑧②① |①-②-|
口③⑥③ |③-④-|
①⑦④⑤ |⑤-⑥-|
⑤口口⑦ |⑦-⑧-|
51
①口①① |①--②|
口②口口 |--③-|
②口口口
③口口口

⑤口口口
④口⑤口
口⑥④④ |④--⑤|
口口口⑥ |--⑥-|
52
口①②口 |①-②-|
口口口口 |--③-|
③口口口
口①②口

口口口④
口口⑤口
口⑥口口 |④-⑤-|
口口⑦口 |⑥-⑦-|
53
口口②口 |①--②|
口口口② |--③-|
口口口口
口③口①

口口口⑤
口口⑤⑥
口口⑦④ |④--⑤|
口口口口 |--⑥⑦|
54
口②②③ |①-②-|
口口③口 |--③-|
口口口口
口口口①

口口口口
口④口口
口口口⑤ |④-⑤-|
口⑥口⑦ |⑥-⑦-|
55
口⑥⑥口 |①---|
口④③② |--②③|
口①①口 |④--⑤|
口⑤⑤口 |--⑥-|
56
④口口② |----|
口③口口 |--①-|
口口④口 |②-③-|
口⑤口① |④-⑤-|
57
⑦口②⑥ |①--②|
⑤口⑥② |③-④-|
③⑤⑨⑧ |⑤--⑥|
①口①④ |⑦-⑧⑨|
58
口②②④ |①-②-|
口口口口 |③-④-|
③口口口
①①口口

⑦口口口
⑤口口⑤
口⑥口口 |⑤-⑥-|
口⑧口⑦ |⑦-⑧-|
59
⑦⑧口⑧ |①---|
⑤⑤④③ |②-③④|
②⑥⑥口 |⑤--⑥|
①口①口 |⑦-⑧-|
60
⑥口④口 |①---|
④口口⑤ |②-③-|
②⑥口口 |④-⑤-|
①口⑦③ |⑥-⑦-|
61
口口②口 |①--②|
③口口口 |③-④-|
③口④①
口①口口

⑤⑤口⑥
口⑦⑥⑤
口⑦口口 |⑤--⑥|
⑧⑨口口 |⑦-⑧⑨|
62
⑥④⑤⑤ |①-②-|
②⑧⑦③ |③-④-|
⑤⑦⑦③ |⑤-⑥-|
口口①口 |⑦-⑧-|
63
⑤⑤⑥⑥ |①---|
②⑦⑧③ |②-③④|
②⑦④⑤ |⑤--⑥|
口①口① |⑦-⑧-|
64
口口口口 |①---|
口口口口 |----|
口口口口
①①①①

②口口③
口②③口
口④⑤口 |②-③-④-|
④口口⑤ |⑤---|
65
口口口口 |①--②|
③口④② |③-④-|
③口口①
口①口口

⑤⑤⑥⑤
口⑦口口
口⑦口口 |⑤--⑥|
⑧⑨口口 |⑦-⑧⑨|
66
④⑧⑤⑤ |①-②-|
②⑥⑦③ |③-④-|
⑤⑨⑨③ |⑤-⑥⑦|
口口①口 |⑧-⑨-|
67
⑥口②⑥ |①---|
⑤③口④ |--②③|
⑤⑥⑥④ |④--⑤|
①①①① |--⑥-|
68
口口③口 |①--②|
口②①口 |--③-|
口口口③
②口口①

口④口口
口⑥⑤口
④口口口 |-④--|
口⑥⑤口 |⑤-⑥-|
69
①口口① |①---|
口口口口 |----|
口①①口 |----|
口口口口 |----|

不確定度: 0

最終更新:2014年12月11日 23:54