ポチコの幸せな日常
NU-KO

EXTREME

Level: 9
BPM: 192
Notes: 854

1
口口口口 |----|
口口口口 |----|
口口口口 |----|
口口口口 |----|
2
①③②④ |①---|
口口口口 |②---|
口口口口 |③---|
④②③① |④---|
3
⑧⑨⑩口 |①-②-|
口②口④ |③-④-|
①口③口 |⑤⑥⑦-|
口⑦⑥⑤ |⑧⑨⑩-|
4
⑥口口⑦ |--①②|
口口①口 |③-④-|
口②③口 |⑤-⑥-|
④⑧⑧⑤ |⑦-⑧-|
5
⑦口口⑤ |--①-|
①②③口 |②-③-|
①②③口 |④-⑤-|
⑥口口④ |⑥-⑦-|
6
口②①口 |①---|
口④③口 |②---|
②口口① |③-④-|
口⑦⑥⑤ |⑤⑥⑦-|
7
口④③口 |①-②-|
④口口③ |③-④-|
②口口① |----|
口口口口 |----|
8
口⑤口口 |①---|
口③④口 |②---|
口口①① |③-④-|
口口②② |⑤---|
9
口口口口 |----|
口口口口 |----|
口口口口 |----|
口口口口 |----|
10
⑤⑤口口 |①---|
⑤①①口 |----|
口①①④ |②-③-|
③口口② |④-⑤-|
11
口⑤④口 |--①-|
口口①口 |②-③-|
口②③口 |----|
口口口口 |④-⑤-|
12
口口口口 |①-②-|
口口口口 |③-④-|
⑤⑥⑦⑧ |⑤-⑥-|
④③②① |⑦-⑧-|
13
口口口口 |①-②-|
④③②① |③-④-|
口口口口 |----|
口口口口 |----|
14
⑦①①⑥ |①-②-|
口⑦⑥口 |--③-|
⑤③③④ |④-⑤-|
②⑤④② |⑥-⑦-|
15
口口口口 |①-②-|
④口⑥② |③-④-|
口⑤口口 |--⑤-|
③口口① |⑥---|
16
口⑤⑥口 |①---|
口③④口 |②---|
口口①① |③-④-|
口口②② |⑤-⑥-|
17
口口口口 |--①②|
⑥⑧口⑤ |③④⑤⑥|
④口⑦③ |⑦-⑧-|
口②①口 |----|
18
①①①① |①---|
口口口口 |----|
口口口口
口口口口

⑤⑤口口
⑤口口口
口口口④ |②-③-|
③口口② |④-⑤-|
19
口⑤④口 |--①-|
口口①口 |②-③-|
口②③口 |----|
口口口口 |④-⑤-|
20
口口口口 |①-②-|
口口口口 |③-④-|
⑤⑥⑦⑧ |⑤-⑥-|
④③②① |⑦-⑧-|
21
口口口口 |①-②-|
④③②① |③-④-|
口口口口 |----|
口口口口 |----|
22
⑦①①⑥ |①-②-|
口⑦⑥口 |--③-|
⑤③③④ |④-⑤-|
②⑤④② |⑥-⑦-|
23
口口口口 |--①-|
①口口④ |②-③-|
口②③口 |④---|
口口口口 |----|
24
⑤口口⑤ |①-②-|
口②①口 |③-④-|
口④③口 |⑤---|
⑥口口⑥ |⑥---|
25
口口口口 |①-②-|
①②⑥⑤ |③-④-|
④③⑦⑧ |⑤-⑥-|
口口口口 |⑦-⑧-|
26
④③②① |①-②-|
⑤⑦⑧⑥ |③-④-|
⑦⑤⑥⑧ |⑤-⑥-|
①②③④ |⑦-⑧-|
27
④③⑦⑧ |①-②-|
口口口口 |③-④-|
口口口口 |⑤-⑥-|
①②⑥⑤ |⑦-⑧-|
28
⑥口口⑥ |①-②-|
①③②④ |③-④-|
④②③① |⑤---|
⑤口口⑤ |⑥---|
29
口①①口 |①---|
口口口口 |----|
口口口口 |②---|
口②②口 |----|
30
①②③④ |①②③④|
⑫⑬⑭⑤ |⑤⑥⑦⑧|
⑪⑯⑮⑥ |⑨⑩⑪⑫|
⑩⑨⑧⑦ |⑬⑭⑮⑯|
31
口①①口 |----|
口口口口 |----|
口口口口 |----|
口口口口 |①---|
32
①口口① |①---|
③②②③ |--②-|
口口口口 |③---|
口④口口 |--④-|
33
⑤口口⑤ |①---|
口④④口 |②-③-|
口③①口 |--④-|
口口②口 |--⑤-|
34
⑬⑭⑮⑯ |①②③④|
⑨⑩⑪⑫ |⑤⑥⑦⑧|
⑤⑥⑦⑧ |⑨⑩⑪⑫|
①②③④ |⑬⑭⑮⑯|
35
⑦口口⑦ |①-②-|
口⑤⑤口 |③---|
③⑥⑥口 |④-⑤-|
①④④② |⑥-⑦-|
36
⑥①①口 |----|
②⑥口⑤ |①-②-|
①口口① |③-④-|
口③④口 |⑤-⑥-|
37
口③③① |--①-|
口口①口 |--②-|
口口口口 |----|
②口口② |--③-|
38
口口口口 |--①-|
①②⑥⑤ |②-③-|
口⑦③④ |④-⑤-|
口⑦⑦口 |⑥-⑦-|
39
③②②② |--①-|
④③口④ |--②-|
①④③口 |--③-|
①口口① |--④-|
40
口①①口 |----|
口口④口 |①-②-|
①⑤口① |③---|
口③②口 |④-⑤-|
41
口②①口 |--①-|
②口口① |--②-|
口口口口 |----|
口③③口 |--③-|
42
口口①口 |--①-|
口口口② |②-③-|
口⑤③口 |④-⑤-|
口口⑥④ |⑥---|
43
①②口② |①---|
①②②② |--②-|
①口②口 |----|
①③③口 |--③-|
44
口口①口 |--①-|
口口口② |②-③-|
口⑤③口 |④-⑤-|
口口⑥④ |⑥---|
45
①②口② |①---|
①②②② |--②-|
①口②口 |----|
①口口口 |----|
46
①③②④ |①---|
口口口口 |②---|
口口口口 |③---|
④②③① |④---|
47
⑧⑨⑩口 |①-②-|
口②口④ |③-④-|
①口③口 |⑤⑥⑦-|
口⑦⑥⑤ |⑧⑨⑩-|
48
⑥口口⑦ |--①②|
口口①口 |③-④-|
口②③口 |⑤-⑥-|
④⑧⑧⑤ |⑦-⑧-|
49
⑦口口⑤ |--①-|
①②③口 |②-③-|
①②③口 |④-⑤-|
⑥口口④ |⑥-⑦-|
50
口②①口 |①---|
口④③口 |②---|
②口口① |③-④-|
口⑦⑥⑤ |⑤⑥⑦-|
51
口④③口 |①-②-|
④口口③ |③-④-|
②口口① |----|
口口口口 |----|
52
⑫⑧⑦⑪ |--①②|
⑩⑭⑬⑨ |③④⑤⑥|
②⑥⑤① |⑦⑧⑨⑩|
④口口③ |⑪⑫⑬⑭|
53
⑭⑩⑨⑬ |①②③④|
⑫⑯⑮⑪ |⑤⑥⑦⑧|
④⑧⑦③ |⑨⑩⑪⑫|
⑥②①⑤ |⑬⑭⑮⑯|
54
⑭⑩⑨⑬ |①②③④|
⑫⑯⑮⑪ |⑤⑥⑦⑧|
④⑧⑦③ |⑨⑩⑪⑫|
⑥②①⑤ |⑬⑭⑮⑯|
55
⑭⑩⑨⑬ |①②③④|
⑫⑯⑮⑪ |⑤⑥⑦⑧|
④⑧⑦③ |⑨⑩⑪⑫|
⑥②①⑤ |⑬⑭⑮⑯|
56
⑭口口⑬ |--①②|
⑧⑫⑪⑦ |③④⑤⑥|
②⑥⑤① |⑦⑧⑨⑩|
⑩④③⑨ |⑪⑫⑬⑭|
57
⑯④③⑮ |①②③④|
⑧⑫⑪⑦ |⑤⑥⑦⑧|
②⑥⑤① |⑨⑩⑪⑫|
⑭⑩⑨⑬ |⑬⑭⑮⑯|
58
⑯④③⑮ |①②③④|
⑥⑩⑨⑤ |⑤⑥⑦⑧|
②⑭⑬① |⑨⑩⑪⑫|
⑫⑧⑦⑪ |⑬⑭⑮⑯|
59
⑭④③⑬ |①②③④|
⑥⑩⑨⑤ |⑤⑥⑦⑧|
②口⑮① |⑨⑩⑪⑫|
⑫⑧⑦⑪ |⑬⑭⑮-|
60
口①①口 |----|
②口③口 |①---|
②口口口 |②---|
口口②口 |③---|
61
口⑦⑦① |①---|
⑥②口口 |②-③-|
口口⑤① |④-⑤-|
④①③口 |⑥-⑦-|
62
③口口① |--①-|
口口④② |②---|
③④口口 |③---|
口口③④ |④---|
63
口口④口 |①-②-|
⑤③口⑦ |③-④-|
口口②口 |⑤-⑥-|
⑥①口⑧ |⑦-⑧-|
64
②①口① |①-②-|
④③③口 |③-④-|
⑥⑤口⑤ |⑤-⑥-|
⑧⑦⑦口 |⑦-⑧-|
65
口③①口 |--①-|
口口口口 |②-③-|
口④②口 |④-⑤-|
⑥口⑦⑤ |⑥-⑦-|
66
①口①② |①-②-|
口③③④ |③-④-|
⑤口⑤⑥ |⑤-⑥-|
口⑦⑦⑧ |⑦-⑧-|
67
②口口① |--①-|
口③④口 |--②-|
口口口口 |--③-|
口口口口 |④---|
68
⑬⑭⑮⑯ |①②③④|
⑨⑩⑪⑫ |⑤⑥⑦⑧|
⑤⑥⑦⑧ |⑨⑩⑪⑫|
①②③④ |⑬⑭⑮⑯|
69
口口口口 |①-②-|
口⑦⑥口 |③---|
③⑤④口 |④-⑤-|
①口口② |⑥-⑦-|
70
口口③① |----|
②口口口 |----①-|
④口口口 |②---|
口口口口 |③---④-|
71
口③③口 |----①-|
口口口口 |----②-|
口①①口 |----|
口②②口 |----③-|
72
口⑦口口 |----①-|
⑦口口口 |②---③-|
口②①口 |④---⑤-|
④⑥⑤③ |⑥---⑦-|
73
口口①口 |----①-|
口③②① |----|
口⑤④口 |②---③-|
口口口口 |④---⑤-|
74
③口口口 |----|
口口口口 |----①-|
②④④口 |②---③-|
①口口口 |----④-|
75
口口口口 |----①-|
口④④① |②---③-|
口口口② |----|
口口口③ |----④-|
76
②⑩③② |----①-|
④口⑨⑦ |②---|
口⑥口口 |③④⑤⑥|
⑧①①⑤ |⑦⑧⑨⑩|
77
③⑦口⑥ |①---|
口口⑦⑥ |②-③-|
⑦口②① |④-⑤-|
口⑤④④ |⑥-⑦-|
78
⑤口①⑤ |--①-|
③①口口 |--②-|
口②②① |③---|
②④④② |④-⑤-|
79
口④④⑥ |①---|
口⑤②② |②-③-|
⑦③⑥① |④-⑤-|
口口口⑦ |⑥-⑦-|
80
②口口④ |--①-|
①口③④ |--②-|
④③口口 |--③-|
④②①口 |--④-|
81
口口①口 |----|
①②④口 |①-②-|
⑤⑤③① |③---|
口①③口 |④-⑤-|
82
②③口② |--①-|
口③口口 |--②-|
口口③口 |----|
①口③① |--③-|
83
⑥口口⑥ |--①-|
口口②① |②-③-|
④③口口 |④---|
⑤口口⑤ |⑤-⑥-|
84
⑤口①⑤ |--①-|
口②口口 |②-③-|
口口③口 |④---|
口④口口 |--⑤-|
85
⑦⑤⑤⑦ |--①-|
④②②④ |②-③-|
⑥口口⑥ |④-⑤-|
①③③① |⑥-⑦-|
86
口⑦⑧口 |①-②-|
④③⑥⑤ |③-④-|
口口②口 |⑤-⑥-|
①口口① |⑦-⑧-|
87
口⑩口⑪ |①②③④|
⑥⑦⑧⑨ |⑤-⑥⑦|
④③②① |⑧⑨⑩-|
⑪口⑤口 |⑪---|
88
①③②④ |①---|
口口口口 |②---|
口口口口 |③---|
④②③① |④---|
89
⑧⑨⑩口 |①-②-|
口②口④ |③-④-|
①口③口 |⑤⑥⑦-|
口⑦⑥⑤ |⑧⑨⑩-|
90
⑥⑦⑦口 |--①②|
口口①口 |③-④-|
⑥②③口 |⑤-⑥-|
④口口⑤ |--⑦-|
91
口⑦⑦⑥ |--①②|
口①口口 |③-④-|
口③②⑥ |⑤-⑥-|
⑤口口④ |--⑦-|
92
⑦口口⑥ |--①②|
口口①口 |③-④-|
口②③口 |⑤-⑥-|
④⑧⑧⑤ |⑦-⑧-|
93
口①①口 |--①-|
③口口③ |②---|
⑤②②⑤ |③-④-|
④口口④ |--⑤-|
94
①③③① |①---|
③②②③ |②-③-|
口③③口 |----|
口口口口 |----|

不確定度: 0

最終更新:2014年12月11日 23:57