猫侍の逆襲
猫叉Master

EXTREME

Level: 10
BPM: 152
Notes: 812

1
口口口口 |----|
口口口口 |----|
口口口口 |----|
口口口口 |----|
2
口④③② |①-②-|
⑧⑦⑥⑤ |--③④|
口⑪⑩⑨ |⑤⑥⑦⑧⑨⑩|
①口⑫⑫ |⑪-⑫-|
3
②⑦④⑧ |①-②-|
⑥③口口 |③-④-|
口⑤口口 |⑤-⑥-|
①①口口 |⑦-⑧-|
4
口口口口 |①-②-|
口口①④ |③-④-|
③口口②
口口口口

口口口口
⑤⑤口口
口口口⑩ |⑤--⑥⑦⑧|
⑨⑧⑦⑥ |⑨-⑩-|
5
④⑧口⑦ |①-②-|
口口⑥③ |③-④-|
①①②口 |⑤-⑥-|
口口口⑤ |⑦-⑧-|
6
⑦口口⑦ |①-②-|
①④口口 |③-④-|
①⑤⑤③ |⑤-⑥-|
⑥口②⑥ |⑦---|
7
口⑧④口 |①-②-|
口③⑦⑥ |③-④-|
②口口口 |⑤-⑥-|
口①⑤口 |⑦-⑧-|
8
口口口① |①--②③④|
口⑥口口 |⑤-⑥-|
②③④⑤
口口口口

⑧口口口
口口⑨⑦
⑬口口口 |⑦⑧⑨⑩|
⑩口⑪⑫ |⑪-⑫⑬|
9
口口③① |①---|
④⑤⑥⑦ |②---|
口②②① |③--④⑤⑥|
⑧口口口 |⑦-⑧-|
10
①④口口 |①---|
口口口⑦ |②---|
⑥口口⑤ |③-④-|
口⑤③② |⑤-⑥⑦|
11
①口口③ |①---|
④口口口 |②-③④|
口②口⑤ |⑤--⑥⑦⑧|
⑥⑦⑧⑨ |⑨---|
12
①口①口 |①--②|
口①③② |③-④-|
①口①④
口口口口

口口口⑤
⑥⑦口口
⑧口口口 |⑤--⑥|
口⑤口口 |⑦-⑧-|
13
①⑤口口 |①--②|
口口口⑤ |③-④-|
⑥⑦③② |⑤--⑥|
⑧口①④ |⑦-⑧-|
14
口口口口 |①--②|
①口③② |③-④-|
口口口④
口③口口

口口⑦⑤
⑥⑦口口
⑧⑤口口 |⑤--⑥|
口口口口 |⑦-⑧-|
15
①③口口 |①--②|
口口口口 |③-④-|
口口③②
口口①④

口口口口
口⑤口⑤
⑥⑦口口 |⑤--⑥|
⑧口⑦口 |⑦-⑧-|
16
口口①口 |①--②|
①口③② |③-④-|
口口口④
口口口口

口口口⑤
⑥⑦口口
⑧口口口 |⑤--⑥|
口⑤口口 |⑦-⑧-|
17
①⑤口口 |①--②|
口口口⑤ |③-④-|
⑥⑦③② |⑤--⑥|
⑧口①④ |⑦-⑧-|
18
口口口口 |①--②|
①口③② |③-④-|
口口口④
口③口口

口口⑦⑤
⑥⑦口口
⑧⑤口口 |⑤--⑥|
口口口口 |⑦-⑧-|
19
①③口口 |①--②|
口口口口 |③-④-|
口口③②
口口①④

⑧口口⑦
口口⑨⑤
⑩⑥口口 |⑤-⑥⑦|
⑤口⑪口 |⑧⑨⑩⑪|
20
⑥①⑤口 |①---|
⑦口口④ |②-③-|
⑧口③口 |④-⑤-|
⑨②口口 |⑥⑦⑧⑨--|
21
口口⑥① |①---|
口⑨⑧⑦ |②-③-|
口⑤④③ |④-⑤-|
口口②口 |⑥--⑦⑧⑨|
22
口③口④ |①-②-|
①口⑦⑥ |③-④-|
口口⑧口 |⑤--⑥|
口口⑤② |⑦-⑧-|
23
口口①④ |①-②-|
⑤③口口 |③-④-|
⑨⑧⑦⑥ |⑤--⑥⑦⑧|
②⑩⑩口 |⑨-⑩-|
24
⑤①①⑥ |①---|
口口④⑦ |②-③-|
口③口⑧ |④-⑤-|
②口口⑨ |⑥⑦⑧⑨--|
25
⑤①①④ |①---|
③口⑥口 |②-③-|
口口口口 |④-⑤-|
⑦口②口 |⑥-⑦-|
26
⑥口口口 |①--②③④|
口口口① |⑤-⑥-|
②③④⑤
口口口口

口口口口
⑨⑧口口
⑪口口口 |⑦--⑧|
口⑦⑩口 |⑨-⑩⑪|
27
②④口口 |①-②-|
口口口① |③-④-|
口口口口
③口口口

口口口口
口口口⑩
⑨⑧⑦⑥ |⑤--⑥⑦⑧|
口⑤口⑩ |⑨-⑩-|
28
口口口口 |①--②|
口②②口 |--③-|
口口口口
①③①口

④口口④
口口口口
⑤口⑤口 |④---|
口口⑥⑥ |⑤--⑥|
29
③④口口 |--①-|
口②②口 |②---|
⑦⑧⑤⑥ |③④⑤⑥|
①口⑨⑩ |⑦⑧⑨⑩|
30
口口口② |①--②|
①口口口 |--③-|
口口口口
①③口口

⑤⑤口口
口④④口
口口口口 |④---|
⑥口口⑥ |⑤--⑥|
31
口口②② |--①-|
口口口口 |②---|
口口口口
口口①口

口⑦口口
口⑧⑤⑥
③④⑨口 |③④⑤⑥|
口口⑩口 |⑦⑧⑨⑩|
32
口口④④ |①--②|
①⑤⑤口 |--③-|
③口口口 |④---|
①⑥⑥② |⑤--⑥|
33
②②口③ |--①-|
⑥口④口 |②---|
口⑦口⑤ |③-④-⑤-|
⑧口口① |⑥-⑦-⑧-|
34
口口口口 |①--②|
口口口口 |--③-|
②口②口
口①①③

口④④口
⑤口口⑤
口口口口 |④---|
口⑥⑥口 |⑤--⑥|
35
②口②口 |--①-|
口口口口 |②---|
口④③① |③---|
④口口③ |④---|
36
⑦⑤③① |①②③④|
⑧⑥④② |⑤⑥⑦⑧|
⑮⑬⑪⑨ |⑨⑩⑪⑫|
⑯⑭⑫⑩ |⑬⑭⑮⑯|
37
⑧③⑥① |①②③④|
④⑦②⑤ |⑤⑥⑦⑧|
⑫⑪⑩⑨ |⑨⑩⑪⑫|
⑯⑮⑭⑬ |⑬⑭⑮⑯|
38
④③②① |①②③④⑤⑥|
⑧⑦⑥⑤ |⑦⑧⑨⑩⑪⑫|
⑫⑪⑩⑨
口口口口

⑳⑲⑱⑰
DCBA
口口口口 |⑬⑭⑮⑯⑰⑱|
⑯⑮⑭⑬ |⑲⑳ABCD|
39
⑫⑪⑩⑨ |①②③④⑤⑥|
口口口⑬ |⑦⑧⑨⑩⑪⑫|
④③②① |⑬---|
⑧⑦⑥⑤ |----|
40
①①⑤⑤ |--①-|
口口②口 |--②③|
口③口口 |④---|
口口④口 |---⑤|
41
口口口口 |----①-|
①口口④ |②-③-④-|
口口②口 |----|
③口口口 |----|
42
口②口口 |①--②|
③口口③ |--③-|
①口口①
口②口口

⑤口④⑥
口口口口
⑤口口⑥ |④---|
⑤口④⑥ |⑤--⑥|
43
口③③口 |--①-|
④②①④ |②---|
④①②④ |③---|
口③③口 |④---|
44
口③口④ |①--②|
口③②口 |③-④-|
口①口口
①口口口

⑤口口口
⑤口口⑥
⑨⑦口口 |⑤-⑥⑦|
口口口⑧ |⑧-⑨-|
45
⑤③②④ |①-②③|
口①口口 |④-⑤-|
口口口口
口口口口

口⑪口口
口口⑨⑩
⑦⑧口口 |⑥--⑦⑧⑨|
口口⑥口 |⑩-⑪-|
46
⑤⑦⑥④ |①-②③|
③⑧口⑪ |④-⑤-|
口口⑨② |⑥--⑦⑧⑨|
①口⑩① |⑩-⑪-|
47
②⑨⑧口 |①--②|
⑦⑥⑩口 |③--④⑤⑥|
口⑪⑤④ |⑦-⑧-|
①口⑫③ |⑨⑩⑪⑫|
48
口口⑤③ |①--②|
④⑥口⑤ |③-④-|
②⑧③⑦ |⑤-⑥⑦|
①①⑨口 |⑧-⑨-|
49
口口口口 |①-②③|
④口口口 |④-⑤-|
②口③口
⑤①口口

⑥口⑦口
口口⑧口
口⑨口⑪ |⑥--⑦⑧⑨|
口⑩⑪口 |⑩-⑪-|
50
口①⑤③ |①--②|
⑥①口③ |③-④-|
②④口⑦ |⑤-⑥⑦|
⑧⑨口口 |⑧-⑨-|
51
⑤⑥口⑦ |①--②|
口口①⑧ |③-④-|
⑨②③口 |⑤--⑥|
⑩口④口 |⑦⑧⑨⑩--|
52
口口④口 |①--②|
口①①口 |③-④-|
口③②口
口口口口

⑦口口口
口⑧口口
⑥口⑨⑤ |⑤-⑥-|
口口⑤⑩ |⑦⑧⑨⑩|
53
口③口④ |①--②|
③口②口 |③-④-|
口①口口
①口口口

⑤口口口
口⑤口⑥
⑨⑦口口 |⑤-⑥⑦|
口口口⑧ |⑧-⑨-|
54
⑤③②④ |①-②③|
①口口口 |④-⑤-|
口口口口
口口口口

口⑪口口
口口⑨⑩
⑦⑧口口 |⑥--⑦⑧⑨|
口口⑥口 |⑩-⑪-|
55
⑤⑦⑥④ |①-②③|
③⑧口⑪ |④-⑤-|
口口⑨② |⑥--⑦⑧⑨|
①口⑩① |⑩-⑪-|
56
②⑨⑧口 |①--②|
⑦⑥⑩口 |③--④⑤⑥|
口⑪⑤④ |⑦-⑧-|
①口⑫③ |⑨⑩⑪⑫|
57
口口⑤③ |①--②|
④⑥⑤口 |③-④-|
②⑧③口 |⑤-⑥⑦|
①①⑨⑦ |⑧-⑨-|
58
口口口④ |①-②-|
③口口② |③-④-|
②口口③
④①口口

⑤口⑥口
口口⑦口
口⑧⑩口 |⑤--⑥⑦⑧|
口⑨⑩⑤ |⑨-⑩-|
59
口①⑤③ |①--②|
⑥①口③ |③-④-|
②④口⑦ |⑤-⑥⑦|
⑧⑨口口 |⑧-⑨-|
60
口口口口 |①--②|
口口①① |③-④-|
口②③口
口口④口

⑤⑥口⑦
口口口⑧
⑨口口口 |⑤--⑥|
⑩口口口 |⑦⑧⑨⑩--|
61
口口④口 |①--②|
口①①口 |③-④-|
口③②口
口口口口

口口口⑤
⑦⑧口口
口口⑩口 |⑤-⑥⑦|
⑨口⑥口 |⑧-⑨⑩|
62
①①口⑤ |①--②|
⑥⑦③② |③-④-|
⑧口口④ |⑤--⑥|
口⑤口口 |⑦-⑧-|
63
①⑤口口 |①--②|
口口口⑤ |③-④-|
⑥⑦③② |⑤--⑥|
⑧口①④ |⑦-⑧-|
64
口口口口 |①--②|
①口③② |③-④-|
口口口④
口③口口

口口⑦⑤
⑥⑦口口
⑧⑤口口 |⑤--⑥|
口口口口 |⑦-⑧-|
65
①③口口 |①--②|
口口④口 |③-④-|
口口③②
口口①口

⑩口口⑦
口口口口
口口口口 |⑤⑥⑦-|
⑤⑥⑨⑧ |⑧⑨⑩-|
66
口口口⑤ |①--②|
⑥⑦③② |③-④-|
⑧①①④ |⑤--⑥|
口⑤口口 |⑦-⑧-|
67
①⑤口口 |①--②|
口口口⑤ |③-④-|
⑥⑦③② |⑤--⑥|
⑧口①④ |⑦-⑧-|
68
口口口口 |①--②|
①口③② |③-④-|
口口口④
口③口口

口口⑦⑤
⑥⑦口口
⑧⑤口口 |⑤--⑥|
口口口口 |⑦-⑧-|
69
①③口口 |①--②|
口口口口 |③-④-|
口口③②
口口①④

⑧口口⑦
口口⑨⑤
⑩⑥⑪口 |⑤-⑥⑦|
⑤口口口 |⑧⑨⑩⑪|
70
口①②口 |①--②|
①口口② |--③-|
口口口③
③②①③

④⑤口④
⑥④⑤口
口⑤⑥口 |④---|
口⑥口口 |⑤--⑥|
71
②④①③ |--①-|
④②③① |②---|
①④口③ |③---|
④口③② |④---|
72
③口②③ |①--②|
口②③① |--③-|
①口口②
口①口口

口④口口
⑤口口⑤
⑥口④⑥ |④---|
口⑤⑥④ |⑤--⑥|
73
②口口① |--①-|
口②①口 |②---|
口①②口 |----|
①口口② |----|

不確定度: 0

最終更新:2014年12月11日 23:56