Blue Goose
Mutsuhiko Izumi

EXTREME

Level: 10
BPM: 200
Notes: 871

1
口口口口 |----|
口口口口 |----|
口口口口 |----|
口口口口 |----|
2
②④⑧⑥ |①-②-|
口口口口 |③-④-|
口口口口 |⑤-⑥-|
①③⑦⑤ |⑦-⑧-|
3
②④⑧⑥ |①-②-|
口口口口 |③-④-|
口口口口 |⑤-⑥-|
①③⑦⑤ |⑦-⑧-|
4
口口口口 |①-②-|
①③⑤⑦ |③-④-|
②④⑥⑧ |⑤-⑥-|
口口口口 |⑦-⑧-|
5
⑦⑤③① |①-②-|
口口口口 |③-④-|
口口口口 |⑤-⑥-|
⑧⑥④② |⑦-⑧-|
6
口口口口 |①-②-|
⑦⑤③① |③-④-|
⑧⑥④② |⑤-⑥-|
口口口口 |⑦-⑧-|
7
⑦⑤③① |①-②-|
口口口口 |③-④-|
口口口口 |⑤-⑥-|
⑧⑥④② |⑦-⑧-|
8
口⑤口① |①-②-|
⑥口②口 |③-④-|
口⑦口③ |⑤-⑥-|
⑧口④口 |⑦-⑧-|
9
①⑩⑪② |①②③④|
⑫③⑬④ |⑤-⑥⑦|
⑥口⑤⑦ |-⑧⑨-|
口⑧⑨口 |⑩⑪⑫⑬|
10
⑩口⑪口 |①②③④|
⑫③⑬④ |⑤-⑥⑦|
⑥①口⑦ |-⑧⑨-|
⑤⑧⑨② |⑩⑪⑫⑬|
11
口③口口 |①-②-|
口②口⑦ |③-④-|
口①口⑥ |--⑤-|
④口口⑤ |⑥-⑦-|
12
④⑦⑥⑤ |①-②-|
口口口口 |③-④-|
①②③口 |--⑤-|
口口口口 |⑥-⑦-|
13
口口口口 |①-②-|
③⑦口口 |③-④-|
②⑥口口 |--⑤-|
①⑤口④ |⑥-⑦-|
14
口③②① |①-②-|
口口口口 |③-④-|
口口口④ |--⑤-|
⑤⑥⑦口 |⑥-⑦-|
15
①口口口 |①-②-|
②⑦口④ |③-④-|
③⑥口口 |--⑤-|
口⑤口口 |⑥-⑦-|
16
口③②① |①-②-|
⑦口口口 |③-④-|
⑥口口④ |--⑤-|
⑤口口口 |⑥-⑦-|
17
①⑥⑤② |①--②|
口④③口 |--③---|
口③④口 |④---⑤-|
⑤②⑥① |--⑥---|
18
②口口口 |①---|
②口口③ |②-③-|
①口口① |----|
口口口③ |----|
19
④③口口 |①-②-|
口②④⑤ |③-④-|
口①①口 |--⑤-|
口⑥⑦⑧ |⑥⑦⑧-|
20
④⑥⑦⑧ |①-②-|
①口⑤口 |③-④-|
①②③④ |--⑤-|
口口口口 |⑥⑦⑧-|
21
口口口口 |①-②-|
③⑥⑦⑧ |③-④-|
②①④口 |--⑤-|
①⑤口④ |⑥⑦⑧-|
22
口③②① |①-②-|
口口口口 |③-④-|
口①口④ |--⑤-|
⑤⑥⑦④ |⑥-⑦-|
23
①口①口 |①-②-|
②口口④ |③-④-|
③⑤④口 |--⑤-|
⑥⑦⑧口 |⑥⑦⑧-|
24
口③②① |①-②-|
①口口口 |③-④-|
口口④④ |--⑤-|
⑤⑧⑦⑥ |⑥⑦⑧-|
25
①⑥⑤② |①--②|
②③④① |--③---|
口④③口 |④---⑤-|
⑤口⑥口 |--⑥---|
26
②口口口 |①---|
②口口③ |②-③-|
①口口①
口口口③

口口口口
口⑤口口
⑥口口口 |--④-|
④口口口 |⑤-⑥-|
27
口①口⑤ |①-②-|
⑦口口③ |③-④-|
口⑧④口 |⑤-⑥-|
口⑥②口 |⑦-⑧-|
28
①口⑤口 |①-②-|
口⑧③口 |③-④-|
⑦口口④ |⑤-⑥-|
口⑥口② |⑦-⑧-|
29
①口⑤口 |①-②-|
口口⑧④ |③-④-|
口⑦③口 |⑤-⑥-|
口口⑥② |⑦-⑧-|
30
①口口① |①---|
③④口口 |--②-|
⑤口口口 |--③-|
②口口② |④-⑤-|
31
⑧口口口 |①-②-|
口口③② |③-④-|
口①⑤④ |⑤-⑥-|
⑥⑦口口 |⑦-⑧-|
32
口①⑤④ |①-②-|
⑥口口口 |③-④-|
⑧⑦口口 |⑤-⑥-|
口口③② |⑦-⑧-|
33
口⑧口口 |①-②-|
口①⑤② |③-④-|
口口③④ |⑤-⑥-|
口⑥⑦口 |⑦-⑧-|
34
①口口① |①---|
口口口口 |--②-|
口口口口 |----|
②口口② |----|
35
①口口① |①---|
口②②口 |--②-|
口①①口 |----|
②口口② |----|
36
④⑥⑤① |①-②-|
口口⑦② |③-④-|
口⑧口③ |--⑤-|
口口⑨口 |⑥⑦⑧⑨|
37
⑤口口⑨ |①---|
④口口⑧ |----|
③口口⑦ |②③④⑤|
②①口⑥ |⑥⑦⑧⑨|
38
⑤①④口 |①-②-|
口②⑥口 |③-④-|
⑦③口口 |--⑤-|
口⑨口⑧ |⑥⑦⑧⑨|
39
口口口① |①---|
③④口口 |--②-|
口口②口 |----|
口口⑤⑥ |③④⑤⑥|
40
①口口口 |①---|
⑥⑤口口 |--②-|
口口④③ |----|
②口口口 |③④⑤⑥|
41
口口口① |①---|
口口⑤⑥ |--②-|
口口口口 |----|
③④口② |③④⑤⑥|
42
①⑤⑦③ |①-②-|
口⑥口口 |③-④-|
②口⑧④ |⑤-⑥-|
口口口口 |⑦-⑧-|
43
⑥⑧口口 |①-②-|
④口口③ |③-④-|
口①口⑤ |⑤-⑥-|
①②②⑦ |⑦-⑧-|
44
口口②① |①②③④|
⑧③⑥⑤ |⑤⑥⑦⑧|
④⑦⑩⑨ |⑨⑩⑪⑫|
⑫⑪口口 |----|
45
⑧⑦②① |①②③④|
口③⑥⑤ |⑤⑥⑦⑧|
④⑪⑩⑨ |⑨⑩⑪⑫|
⑫口口口 |----|
46
口口②① |①②③④|
④③口口 |⑤⑥⑦⑧|
⑧⑪⑩⑨ |⑨⑩⑪⑫|
⑫⑦⑥⑤ |----|
47
口③②① |①②③④|
④⑦⑥⑤ |⑤⑥⑦⑧|
⑧⑪⑩⑨ |⑨⑩⑪⑫|
⑫口口口 |----|
48
①②③⑧ |①②③④|
⑤⑥⑦④ |⑤⑥⑦⑧|
⑨⑩⑪口 |⑨⑩⑪⑫|
口口口⑫ |----|
49
口口口⑧ |①②③④|
⑤⑥⑦⑫ |⑤⑥⑦⑧|
⑨⑩⑪④ |⑨⑩⑪⑫|
①②③口 |----|
50
①⑤⑦口 |①-②-|
③口口口 |③-④-|
④⑥⑧口 |⑤-⑥-|
②口口口 |⑦-⑧-|
51
③⑥⑥③ |①-②-|
⑤①①⑤ |③-④-|
⑦⑧⑨⑩ |⑤-⑥-|
④②②④ |⑦⑧⑨⑩|
52
口口口口 |①---|
口①①④ |----|
③口口口 |--②-|
口口口② |③-④-|
53
①口口口 |①---|
③④⑤口 |--②-|
口②②口 |----|
口口口口 |③-④-⑤-|
54
口口口口 |①---|
口口口① |----|
口口④口 |--②-|
口③②口 |③-④-|
55
④口口口 |①---|
口口口③ |②③④-|
②①口口 |----|
口口口口 |----|
56
口口口口 |①---|
口口口④ |----|
③①①口 |--②-|
口口口② |③-④-|
57
①②口② |①---|
③口口口 |--②-|
口口口④ |----|
口口口口 |--③④|
58
口口口口 |①---|
口口④口 |----|
口③口口 |--②-|
①口②口 |③-④-|
59
口①口口 |①---|
口口口④ |----|
③口口口 |--②-|
口口口② |③-④-|
60
①②口② |①---|
口口口口 |--②-|
口口口口 |----|
口口口口 |----|
61
②④⑧⑥ |①-②-|
口口口口 |③-④-|
口口口口 |⑤-⑥-|
①③⑦⑤ |⑦-⑧-|
62
②④⑧⑥ |①-②-|
口口口口 |③-④-|
口口口口 |⑤-⑥-|
①③⑦⑤ |⑦-⑧-|
63
口口口口 |①-②-|
①③⑤⑦ |③-④-|
②④⑥⑧ |⑤-⑥-|
口口口口 |⑦-⑧-|
64
⑦⑤③① |①-②-|
口口口口 |③-④-|
口口口口 |⑤-⑥-|
⑧⑥④② |⑦-⑧-|
65
口口口口 |①-②-|
⑦⑤③① |③-④-|
⑧⑥④② |⑤-⑥-|
口口口口 |⑦-⑧-|
66
⑦⑤③① |①-②-|
口口口口 |③-④-|
口口口口 |⑤-⑥-|
⑧⑥④② |⑦-⑧-|
67
口⑤口① |①-②-|
⑥口②口 |③-④-|
口⑦口③ |⑤-⑥-|
⑧口④口 |⑦-⑧-|
68
①⑩⑪② |①②③④|
⑫③⑬④ |⑤-⑥⑦|
⑥口⑤⑦ |-⑧⑨-|
口⑧⑨口 |⑩⑪⑫⑬|
69
⑩口⑪口 |①②③④|
⑫③⑬④ |⑤-⑥⑦|
⑥①口⑦ |-⑧⑨-|
⑤⑧⑨② |⑩⑪⑫⑬|
70
口③口口 |①-②-|
口②口⑦ |③-④-|
口①①⑥ |--⑤-|
④口口⑤ |⑥-⑦-|
71
④⑦⑥⑤ |①-②-|
①①①口 |③-④-|
口②③口 |--⑤-|
口口口口 |⑥-⑦-|
72
口口口口 |①-②-|
③⑦口口 |③-④-|
②⑥口① |--⑤-|
①⑤①④ |⑥-⑦-|
73
①③②① |①-②-|
口口口① |③-④-|
口口口④ |--⑤-|
⑤⑥⑦口 |⑥-⑦-|
74
①口①口 |①-②-|
②⑦①④ |③-④-|
③⑥口口 |--⑤-|
口⑤口口 |⑥-⑦-|
75
①③②① |①-②-|
①口口口 |③-④-|
口口口④
口口口口

口口口口
⑦口口口
⑥口口口 |--⑤-|
⑤口口口 |⑥-⑦-|
76
①⑥口② |①--②|
口④③口 |--③---|
⑤③④口 |④---⑤-|
⑤②⑥① |--⑥---|
77
口口口③ |①---|
②口口口 |②-③-|
口口口①
口口口①

④口⑧口
口⑤口⑨
⑥口⑩口 |④⑤⑥⑦|
口⑦口⑪ |⑧⑨⑩⑪|
78
口③口⑥ |①-②-|
②口④口 |③-④-|
口①口⑤ |⑤-⑥-|
④⑦⑧⑨ |⑦⑧⑨-|
79
④⑦⑧⑨ |①-②-|
①②⑥⑤ |③-④-|
①口③④ |⑤-⑥-|
口口口口 |⑦⑧⑨-|
80
口口口口 |①-②-|
③⑦⑧⑨ |③-④-|
②①④口 |⑤-⑥-|
①⑥⑤④ |⑦⑧⑨-|
81
口③②① |①-②-|
⑤口口口 |③-④-|
口①口④ |⑤-⑥-|
⑥⑦⑧④ |⑦-⑧-|
82
①③①口 |①-②-|
口②③④ |③-④-|
⑦⑥④⑤ |⑤-⑥-|
⑦⑧⑨⑤ |⑦⑧⑨-|
83
口③⑤① |①-②-|
①③②口 |③-④-|
⑦⑤④④ |⑤-⑥-|
⑥⑨⑧⑦ |⑦⑧⑨-|
84
①⑥⑤② |①--②|
②③④① |--③---|
口④③口 |④---⑤-|
⑤口⑥口 |--⑥---|
85
①口口口 |①---|
⑤⑤口③ |②-③-|
②⑥口① |--④-|
④②口③ |⑤-⑥-|
86
①①⑤⑤ |①-②-|
⑦⑦③③ |③-④-|
口⑧④口 |⑤-⑥-|
口⑥②口 |⑦-⑧-|
87
①①⑤⑤ |①-②-|
口⑧③③ |③-④-|
⑦⑦口④ |⑤-⑥-|
口⑥口② |⑦-⑧-|
88
①①⑤⑤ |①-②-|
口口⑧④ |③-④-|
⑦⑦③③ |⑤-⑥-|
口口⑥② |⑦-⑧-|
89
①①口口 |①---|
口⑤口口 |--②-|
④口④口 |--③-|
②③口② |④-⑤-|
90
①⑤①⑤ |①-②-|
口⑧④口 |③-④-|
⑦③口③ |⑤-⑥-|
口⑥②⑦ |⑦-⑧-|
91
①口口⑤ |①-②-|
⑤⑧④① |③-④-|
⑦口⑦③ |⑤-⑥-|
③⑥②口 |⑦-⑧-|
92
①⑤①⑤ |①-②-|
口⑧④口 |③-④-|
口③⑦③ |⑤-⑥-|
口⑥②口 |⑦-⑧-|
93
①口①口 |①---|
口口口口 |--②-|
口口口口 |----|
②口口② |----|
94
①口口① |①---|
口②②口 |--②-|
口①①口 |----|
②口口② |----|
95
①①②② |①---|
口口口口 |--②-|
口①①口 |----|
口②②口 |----|
96
①②⑨⑩ |①②③④|
③④⑪⑫ |⑤⑥⑦⑧|
⑤⑥⑬⑭ |⑨⑩⑪⑫|
⑦⑧⑮⑯ |⑬⑭⑮⑯|
97
①口③③ |①---|
口口口③ |----|
②口口口 |----|
②②口口 |②-③-|
98
④③口口 |①---|
②①①口 |--②③|
口①①② |④---|
口口③④ |----|

不確定度: 0

最終更新:2014年12月11日 23:19