ViViD
May'n

BASIC

Level: 3
BPM: 205
Notes: 178

1
口口口口 |----|
口口口口 |----|
口口口口 |----|
口口口口 |----|
2
口口口口 |----|
口口口口 |----|
口口口口 |----|
口口口口 |----|
3
口口口口 |①---|
口口①口 |----|
口口口口 |----|
口口口口 |----|
4
口口口口 |①---|
口口口口 |----|
口口①口 |----|
口口口口 |----|
5
口口口口 |①---|
口①口口 |----|
口口口口 |----|
口口口口 |----|
6
口口口口 |①---|
口口口口 |----|
口①口口 |----|
口口口口 |----|
7
口口口口 |①---|
口口②口 |----|
口①①口 |----|
口口口口 |--②-|
8
口口①口 |----|
口口口口 |--①-|
口口口口 |----|
口口口口 |----|
9
口口口口 |①---|
口②口口 |----|
口①①口 |----|
口口口口 |--②-|
10
口①口口 |----|
口口口口 |--①-|
口口口口 |----|
口口口口 |----|
11
口口口口 |①---|
口口②口 |----|
口①①口 |----|
口口口口 |--②-|
12
口口①口 |----|
口口口口 |--①-|
口口口口 |----|
口口口口 |----|
13
口口口口 |①---|
口口口口 |----|
口①①口 |----|
口口口口 |----|
14
口口口口 |①---|
口口口口 |--②-|
口口口口 |----|
口③②① |③---|
15
口口口口 |--①-|
口口口口 |----|
口③②口 |②---|
①口口口 |③---|
16
口口口口 |----|
口口口口 |----|
口口口口 |----|
口口口口 |----|
17
口口口口 |①---|
口口①口 |----|
口口口口 |----|
口口口口 |----|
18
口口口口 |①---|
口①口口 |----|
口口口口 |----|
口口口口 |----|
19
口口①口 |①---|
口口口口 |----|
口口口口 |----|
口口口口 |----|
20
口①口口 |①---|
口口口口 |----|
口口口口 |----|
口口口口 |----|
21
口口口① |①---|
口口口口 |----|
口口口口 |----|
口口口口 |----|
22
①口口口 |①---|
口口口口 |----|
口口口口 |----|
口口口口 |----|
23
口口口口 |----|
口口口口 |----|
口口口口 |----|
口口口口 |----|
24
口口口口 |①---|
口①①口 |----|
口口口口 |----|
口口口口 |----|
25
口口口口 |①---|
口口口口 |----|
口口①口 |----|
口口口口 |----|
26
口口口口 |①---|
口口口口 |----|
口①口口 |----|
口口口口 |----|
27
口口口口 |①---|
口口口口 |----|
口口口口 |----|
口口①口 |----|
28
口口口口 |①---|
口口口口 |----|
口口口口 |----|
口①口口 |----|
29
口口口口 |①---|
口口口口 |----|
口口口口 |----|
口口口① |----|
30
口口口口 |①---|
口口口口 |----|
口口口口 |----|
①口口口 |----|
31
口口口口 |----|
口口口口 |----|
口口口口 |----|
口口口口 |----|
32
口口口口 |①---|
口口口口 |----|
口①①口 |----|
口口口口 |----|
33
口口口口 |①---|
口口②① |----|
口口口口 |②---|
口口口口 |----|
34
口口口口 |①---|
口①口口 |----|
口口口口 |----|
口口口口 |----|
35
口口口口 |①---|
①②口口 |----|
口口口口 |②---|
口口口口 |----|
36
口口口口 |①---|
口口①口 |----|
口口口口 |----|
口口口口 |----|
37
口口口口 |①---|
口口口口 |----|
口②①口 |②---|
口口口口 |----|
38
口口口口 |①---|
口②①口 |----|
口口口口 |②---|
口口口口 |----|
39
口口口口 |----|
口口口口 |----|
口口口口 |----|
口口口口 |----|
40
口口口口 |①---|
口口口口 |----|
口①①口 |----|
口口口口 |----|
41
口口口口 |①---|
口口②① |----|
口口口口 |②---|
口口口口 |----|
42
口口口口 |①---|
②①口口 |----|
口口口口 |②---|
口口口口 |----|
43
口①①口 |①---|
口口口口 |----|
口口口口 |----|
口口口口 |----|
44
口口口口 |①---|
口①①口 |----|
口口口口 |----|
口口口口 |----|
45
口口口口 |①---|
口口口口 |----|
口①①口 |----|
口口口口 |----|
46
口口口口 |①---|
口口口口 |----|
口口口口 |----|
口①①口 |----|
47
口口口口 |①---|
②口口② |----|
①口口① |②---|
口口口口 |----|
48
①口口① |①---|
口②②口 |----|
口口口口 |----|
口口口口 |②---|
49
口口口口 |----|
口口口口 |----|
口口口口 |----|
口口口口 |----|
50
口口口口 |①---|
口口口口 |②---|
①②③④ |③---|
口口口口 |④---|
51
口②④口 |①---|
口①③口 |②---|
口口口口 |③---|
口口口口 |④---|
52
①口口① |①---|
口口口口 |----|
口②口口 |----|
口口口口 |②---|
53
口口口口 |①---|
口①③口 |②---|
口口②口 |③---|
口口口口 |----|
54
口口口口 |①---|
①口口① |----|
口②口口 |----|
口口口口 |②---|
55
口④③口 |①---|
口②①口 |②---|
口口口口 |③---|
口口口口 |④---|
56
①口口① |①---|
②口口② |----|
口口口口 |②---|
口口口口 |----|
57
口口口口 |①---|
口①①口 |--②-|
口②口口 |--③-|
口口③口 |----|
58
口口口口 |①---|
口口口口 |②---|
④③②① |③---|
口口口口 |④---|
59
口④②口 |①---|
口③①口 |②---|
口口口口 |③---|
口口口口 |④---|
60
①口口① |①---|
口口口口 |----|
口口②口 |----|
口口口口 |②---|
61
口口口口 |①---|
口③①口 |②---|
口②口口 |③---|
口口口口 |----|
62
口口口口 |①---|
①口口① |----|
口口②口 |----|
口口口口 |②---|
63
口口口口 |①---|
口③①口 |②---|
口②口口 |③---|
口口口口 |----|
64
①口口① |①---|
②口口② |----|
口口口口 |②---|
口口口口 |----|
65
口口口口 |①---|
口①①口 |--②-|
口②口口 |--③-|
口口③口 |----|
66
口①①口 |①---|
口口口② |②---|
口口口③ |③---|
口口口④ |④---|
67
④口口口 |①---|
③口口口 |②---|
②口口口 |③---|
口①①口 |④---|
68
口①①口 |①---|
口口口② |②---|
口口口③ |③---|
口口口④ |④---|
69
④口口口 |①---|
③口口口 |②---|
②口口口 |③---|
口①①口 |④---|
70
口①①口 |①---|
口口口② |②---|
口口口③ |③---|
口口口④ |④---|
71
口口口口 |①---|
口口口口 |----|
口②②口 |②---|
口①①口 |----|
72
口②①口 |①---|
口口③口 |--②-|
口口口口 |----|
口口口口 |③---|
73
口口口口 |--①-|
口①口口 |----|
②口口② |②---|
口口口口 |----|
74
②口口① |①---|
口口口③ |--②-|
口口口口 |----|
口口口口 |③---|
75
口口口口 |--①-|
①口口口 |----|
口②②口 |②---|
口口口口 |----|
76
口①①口 |①---|
口②②口 |--②-|
口③③口 |----|
口口口口 |③---|
77
口口口口 |--①-|
口口口口 |----|
口口口口 |----|
口①①口 |----|

不確定度: 0

最終更新:2014年07月20日 00:56