陽炎
星野奏子

ADVANCED

Level: 6
BPM: 140
Notes: 355

1
口口口口 |----|
口口口口 |----|
口口口口 |----|
口口口口 |----|
2
口口口口 |①---|
口②口口 |②---|
①口③① |③---|
口④口口 |④---|
3
口口口口 |①---|
口口①口 |----|
口口口口 |----|
口口口口 |----|
4
口口口口 |①---|
口口②口 |②---|
口③口口 |③---|
①口④① |④---|
5
口口口口 |①---|
口①口口 |----|
口口口口 |----|
口口口口 |----|
6
口②口口 |①---|
口口③口 |②---|
①④口① |③---|
口口口口 |④---|
7
口口口口 |①---|
口口口口 |----|
口口口口 |----|
口口①口 |----|
8
口口②口 |①---|
口③口口 |②---|
口口④口 |③---|
①口口① |④---|
9
口口口口 |①---|
②口口② |----|
口⑤⑥口 |②---|
①③④① |③④⑤⑥|
10
口①①口 |①---|
口口口口 |----|
④口口⑤ |----|
②口口③ |②③④⑤|
11
口①①口 |①---|
③②②③ |②---|
口口口口 |③---|
口④④口 |④---|
12
②口口③ |①---|
口口口口 |----|
①③②① |②---|
口口口口 |③---|
13
口口口口 |①---|
口①①口 |----|
口口口口
口口口口

②②口口
口③口④
口口⑤口 |②-③-|
口口口口 |④-⑤-|
14
口口口口 |①---|
①口口口 |----|
口口口口 |----|
①口口口 |----|
15
口②①口 |①---|
②口口① |②---|
④口口③ |③---|
口④③口 |④---|
16
口口口口 |①---|
口①①口 |----|
口口口口 |----|
口口口口 |----|
17
口口口口 |①---|
口口口口 |----|
口②②口 |②---|
①口口① |----|
18
口⑦⑥口 |①---|
①③④① |--②-|
⑤口口⑤ |③-④-|
口口②口 |⑤-⑥⑦|
19
①口①口 |----|
口口口口 |----|
口口口口 |----|
口口口口 |--①-|
20
口口口口 |①---|
口③④口 |②-③④|
①口①口
②口口②

口⑥口⑦
口口口口
⑤口口口 |--⑤-|
口口口口 |⑥-⑦-|
21
口口口口 |①-②③|
口①口口 |----|
口①③口 |----|
口口②口 |----|
22
口⑥⑦口 |①---|
①③④① |--②-|
⑤口口⑤ |③-④-|
口口②口 |⑤-⑥⑦|
23
口口口口 |----|
口口①口 |----|
口口口口 |----|
口口口口 |①---|
24
口口口口 |①---|
口口口口 |②--③|
②口口③
口口①口

④口④口
⑦⑤⑦⑤
⑥口⑥口 |--④-|
口口口口 |⑤-⑥⑦|
25
口口口口 |----|
口口口口 |----|
口口口口 |----|
口口口口 |----|
26
①⑥⑥口 |①-②-|
②口④③ |③-④-|
③④口② |--⑤-|
口⑤⑤① |--⑥-|
27
口口口口 |----|
口口口口 |----|
口口口口 |----|
口口口口 |----|
28
①口口口 |①-②-|
②口④③ |③-④-|
③④口②
口口口①

口口口口
⑥口口⑥
口口口口 |--⑤-|
口⑤⑤口 |--⑥-|
29
口口口口 |----|
口①口口 |----|
②口口口 |----|
口口口口 |①-②-|
30
口口②口 |①---|
口口口③ |----|
口口④口 |--②-|
口①口口 |③-④-|
31
口口口口 |①---|
口口口口 |----|
口口口口 |----|
口②口① |--②-|
32
口④⑤口 |①---|
③口口③ |②-③-|
②⑤④② |--④-|
口口①口 |--⑤-|
33
口口口口 |----|
口口口口 |----|
口口口口 |----|
口口口口 |----|
34
口口口口 |①---|
①①①① |----|
②②②② |②---|
口口口口 |----|
35
⑤⑨口⑤ |①--②|
口③④口 |--③④|
口口⑥⑧ |⑤-⑥-|
①⑦口② |⑦-⑧⑨|
36
⑦口口⑧ |--①-|
④③①④ |②-③-|
口⑥⑥口 |④-⑤-|
②⑤②口 |⑥-⑦⑧|
37
口口口口 |----|
①④②① |----|
口口⑤口 |①-②-|
③口口口 |③-④⑤|
38
口口口口 |--①-|
③⑤⑥③ |②-③-|
①口口口 |④-⑤⑥|
④②②④ |----|
39
③③口口 |----|
④口口口 |--①-|
口④②口 |②---|
口①口口 |③-④-|
40
口口口① |--①-|
口口口② |②-③-|
口口口③
口口口口

⑦口口⑦
口④④口
口⑤⑤口 |④-⑤-|
⑥口口⑥ |⑥-⑦-|
41
口口口口 |----|
④②口④ |--①-|
口①②口 |②---|
③口①③ |③-④-|
42
③口口③ |--①-|
④口②④ |--②-|
①⑤口① |③---|
口口口口 |④-⑤-|
43
口口口口 |①---|
口口口口 |②---|
①口口①
②口口②

口⑦⑦口
③口口③
口口口⑥ |③-④-|
口⑤④口 |⑤-⑥⑦|
44
⑦口口⑧ |--①-|
④③①④ |②-③-|
口⑥⑥口 |④-⑤-|
②⑤②口 |⑥-⑦⑧|
45
④口口④ |----|
口口口口 |--①-|
口②①口 |②---|
①③③② |③-④-|
46
口口口口 |--①-|
口②②口 |--②-|
①②②① |----|
口口口口 |----|
47
口②口口 |--①-|
口口口③ |②-③-|
口④④口 |④---|
①口口口 |----|
48
⑤⑤口口 |--①-|
口③口口 |②-③-|
④口②④ |④---|
口①口口 |⑤---|
49
口口口口 |①---|
口口①① |②---|
②②口口 |③---|
口口③③ |----|
50
口口口口 |①---|
②口口② |----|
①口口① |②---|
口口口口 |----|
51
口⑥⑥口 |①---|
口①①口 |②③④⑤|
口④⑤口 |⑥---|
口②③口 |----|
52
口⑤⑤口 |----|
口⑥⑥口 |①②③④|
③口口④ |⑤---|
①口口② |⑥---|
53
口口口口 |①---|
①口口① |②---|
③口口③ |③---|
口②②口 |----|
54
①口口② |①---|
口③③口 |②---|
口②①口 |③---|
口口口口 |----|
55
①①口口 |①-②-|
⑤②口③ |③-④-|
口口④口 |⑤---|
⑤口口口 |----|
56
口口口口 |----|
口口①③ |①---|
②口③口 |②---|
口②口口 |--③-|
57
①②③① |----|
口④⑤口 |①---|
口口口口 |②-③-|
口口口口 |④-⑤-|
58
口口口口 |①-②-|
①⑤⑥② |③-④-|
③⑦⑧④ |⑤-⑥-|
口口口口 |⑦-⑧-|
59
口④④口 |①-②-|
口口口口 |③-④-|
③口口③ |----|
口①②口 |----|


不确定度: 0

最終更新:2012年11月08日 18:22