ViViD
May'n

ADVANCED

Level: 7
BPM: 205
Notes: 342

1
口口口口 |----|
口口口口 |----|
口口口口 |----|
口口口口 |----|
2
口口口口 |----|
口口口口 |----|
口口口口 |----|
口口口口 |----|
3
口口⑥口 |①-②-|
口⑤②口 |--③-|
口①④口 |--④-|
口口③口 |⑤-⑥-|
4
①口口口 |--①-|
口口口② |--②-|
口③口口 |--③-|
口口④口 |④---|
5
口⑥口口 |①-②-|
口②⑤口 |--③-|
口④①口 |--④-|
口③口口 |⑤-⑥-|
6
口口口① |--①-|
②③③口 |--②-|
口③③口 |----|
口口口口 |③---|
7
⑥口⑤③ |①-②-|
口口口② |③-④-|
口口口① |--⑤-|
④口口口 |--⑥-|
8
口口口口 |--①-|
口①口口 |--②-|
口口②口 |--③-|
口③④口 |④---|
9
③⑤口⑥ |①-②-|
②口口口 |③-④-|
①口口口 |--⑤-|
口口口④ |--⑥-|
10
口口口口 |--①-|
口口①口 |--②-|
口②口口 |--③-|
口④③口 |④---|
11
⑥口⑤③ |①-②-|
口口口② |③-④-|
口口口① |--⑤-|
④口口口 |--⑥-|
12
口口口口 |--①-|
口①口口 |--②-|
口口②口 |--③-|
口③④口 |④---|
13
③口口口 |①-②-|
②口口口 |③-④-|
①⑤⑥口 |--⑤-|
口口口④ |⑥---|
14
②口口① |①---|
④口口③ |②-③-|
口口口⑤ |--④-|
口口口口 |⑤---|
15
口口口口 |①-②-|
口⑤口口 |--③-|
①口④口 |④---|
③口口② |⑤---|
16
口口口口 |----|
①口口口 |----|
口口口口 |----|
口口口口 |①---|
17
口④⑤口 |①---|
口①口口 |②---|
口口③② |③-④-|
口口口口 |--⑤-|
18
口口口口 |----|
口口口① |----|
口口口口 |----|
口口口口 |①---|
19
口⑤④口 |①---|
口口①口 |②---|
②③口口 |③-④-|
口口口口 |--⑤-|
20
口口口口 |----|
口口口口 |----|
口口口口 |----|
口①①口 |①---|
21
口③③口 |①---|
口①①口 |②---|
④②②④ |③---|
口口口口 |④---|
22
口口口① |①---|
口②③口 |②-③-|
口口口口 |----|
口口口口 |----|
23
口口口① |----|
口口口② |----|
口口口口 |①---|
口口口口 |②---|
24
口口口口 |①---|
口④口口 |----|
口②③① |--②-|
口口口口 |③-④-|
25
口口口口 |①---|
②口①口 |②---|
④口口③ |③---|
口口口口 |④---|
26
口口口口 |①---|
口口口口 |②---|
口口③口 |③-④-|
②④⑤① |--⑤-|
27
口口口口 |----|
口口口口 |----|
口②①口 |①---|
口口口口 |②---|
28
口④⑤口 |①---|
口⑥①口 |②-③-|
口口口口 |--④-|
口②③口 |⑤-⑥-|
29
⑤口口⑤ |①---|
口口①口 |②-③-|
口口②口 |④---|
口③④口 |⑤---|
30
口口口口 |①---|
①口口① |②-③-|
口②③口 |----|
口口口口 |----|
31
口口口口 |----|
口口口口 |----|
口口口口 |----|
口口口口 |----|
32
口口口口 |----|
①口口口 |----|
口口口口 |----|
口口口口 |①---|
33
口④⑤口 |①---|
口①口口 |②---|
口口③② |③-④-|
口口口口 |--⑤-|
34
口口口口 |----|
口口口① |----|
口口口口 |----|
口口口口 |①---|
35
口⑤④口 |①---|
口口①口 |②---|
②③口口 |③-④-|
口口口口 |--⑤-|
36
口口口口 |----|
口口口口 |----|
口口口口 |----|
口①①口 |①---|
37
口③③口 |①---|
口①①口 |②---|
④②②④ |③---|
口口口口 |④---|
38
口口口① |①---|
口②③口 |②-③-|
口口口口 |----|
口口口口 |----|
39
口口口① |----|
口口口② |----|
口口口口 |①---|
口口口口 |②---|
40
口口口口 |①---|
口④口口 |----|
口②③① |--②-|
口口口口 |③-④-|
41
口口口口 |①---|
②口①口 |②---|
④口口③ |③---|
口口口口 |④---|
42
口口口口 |①---|
口口⑤口 |②---|
口④口口 |③-④-|
②口③① |--⑤-|
43
口口口口 |----|
口口口口 |----|
口②①口 |①---|
口口口口 |②---|
44
口口口口 |①---|
口口①口 |②-③-|
口④口口 |----|
口②③口 |④---|
45
口②①口 |①---|
口④③口 |②---|
口口口口 |③---|
口口口口 |④---|
46
口口口口 |①---|
口口口口 |----|
口口①口 |②---|
口②口口 |----|
47
口①①口 |①---|
口②②口 |----|
口③③口 |②---|
口口口口 |③---|
48
口①②口 |①-②-|
③口口③ |--③-|
④口口⑤ |--④-|
口口口口 |⑤---|
49
口口口口 |----|
口①①口 |----|
口①①口 |----|
口口口口 |①---|
50
口口⑥口 |①-②-|
④⑦口⑤ |③-④-|
②口口③ |⑤---|
口口口① |⑥-⑦-|
51
④④口口 |①---|
口口③③ |②---|
②②口口 |③---|
口口①① |④---|
52
口口口④ |①---|
口③口口 |②-③-|
口口②口 |----|
口①①口 |④---|
53
②口口口 |①---|
口③①口 |②---|
口⑤④口 |③---|
口口口口 |④-⑤-|
54
口口口口 |----|
口口口口 |----|
口口口① |----|
口口口口 |①---|
55
④口口口 |①---|
③口口① |②---|
②口口口 |③---|
口口口口 |④---|
56
口④④口 |①---|
口②②口 |②---|
口③③口 |③---|
口①①口 |④---|
57
①口口口 |①-②-|
口口口② |③-④-|
③口口口 |--⑤-|
口⑤⑤④ |----|
58
口⑥口口 |①-②-|
⑤口⑦④ |③-④-|
③口口② |⑤---|
①口口口 |⑥-⑦-|
59
口口④④ |①---|
③③口口 |②---|
口口②② |③---|
①①口口 |④---|
60
④口口口 |①---|
口口③口 |②-③-|
口②口口 |----|
口①①口 |④---|
61
口口口② |①---|
口①③口 |②---|
口④⑤口 |③---|
口口口口 |④-⑤-|
62
口口口口 |----|
口口口口 |----|
口口口口 |----|
口①①口 |①---|
63
口④⑤① |①---|
口③②① |②---|
口③②口 |③---|
口口口口 |④-⑤-|
64
①口口口 |①---|
口口口口 |----|
②口口② |②---|
口口口口 |----|
65
口②②口 |①---|
①口口① |--②-|
口④口口 |--③-|
口③③口 |--④-|
66
口口口口 |①---|
口口①口 |--②-|
口口口口 |----|
②口口② |----|
67
口①①口 |①---|
②口口② |--②-|
③口口③ |----|
口口口口 |③---|
68
口口口口 |①---|
口口②口 |②-③-|
口③口口 |----|
口①①口 |----|
69
口口口口 |----|
口口口口 |----|
②口口② |①---|
①口口① |②---|
70
口③②口 |①---|
①口口① |②-③-|
口口口口 |----|
口口口口 |----|
71
①口口② |①---|
①口口② |--②-|
口口口口 |----|
口③③口 |③---|
72
口①①口 |①---|
③口口② |--②-|
③口口② |----|
口口口口 |③---|
73
②口口② |--①-|
口口口口 |----|
口口口口 |②---|
口①①口 |----|
74
口①①口 |①---|
口②②口 |--②-|
口③③口 |----|
口口口口 |③---|
75
②口口② |--①-|
口口口口 |----|
口口口口 |②---|
口①①口 |----|
76
口①②口 |①---|
①①②② |--②-|
③③口口 |----|
口③口口 |③---|
77
口口口口 |--①-|
口口口口 |----|
口口①① |----|
口口①口 |----|

不確定度: 0

最終更新:2014年07月20日 00:56