SHION
DJ YOSHITAKA

ADVANCED

Level: 7
BPM: 179
Notes: 554

1
口口口口 |----|
口口口口 |----|
口口口口 |----|
口口口口 |----|
2
口口口③ |----|
④口口② |①---|
④口口① |②---|
口口口口 |③-④-|
3
口⑥口口 |--①-|
口④⑤⑦ |②-③-|
口②③⑦ |④-⑤-|
口口①口 |⑥-⑦-|
4
口口⑥口 |--①-|
⑦⑤④口 |②-③-|
⑦③②口 |④-⑤-|
口①口口 |⑥-⑦-|
5
口⑥口口 |--①-|
口④⑤⑦ |②-③-|
口②③⑦ |④-⑤-|
口口①口 |⑥-⑦-|
6
口口⑥口 |--①-|
⑦⑤④口 |②-③-|
⑦③②口 |④-⑤-|
口①口口 |⑥-⑦-|
7
口⑦⑦① |--①-|
口⑥口② |②-③-|
口⑤④③ |④-⑤-|
口口口口 |⑥-⑦-|
8
①⑦⑦口 |--①-|
②口⑥口 |②-③-|
③④⑤口 |④-⑤-|
口口口口 |⑥-⑦-|
9
口口口口 |----|
口口口① |①-②-|
②口口口 |③---|
口④④③ |--④-|
10
④①①④ |--①-|
口②②口 |--②-|
口③③口 |--③-|
口口口口 |--④-|
11
口口口口 |----|
口④口① |①---|
口口②口 |②---|
口③口口 |③-④-|
12
⑤口②口 |--①-|
口口①④ |--②-|
③口口口 |--③-|
口口口口 |④-⑤-|
13
口口口① |①---|
口口口口 |②---|
口⑤⑥② |③-④-|
口③④口 |⑤-⑥-|
14
口①①口 |--①-|
③口④② |--②-|
口口口口 |③---|
口口口口 |--④-|
15
口①口口 |①---|
口⑤口② |②---|
口口③口 |③---|
口④口口 |④-⑤-|
16
⑤口②口 |--①-|
口口①④ |--②-|
③口口口 |--③-|
口口口口 |④-⑤-|
17
口口⑥① |①---|
口⑤③口 |②-③-|
口②④口 |--④-|
口口口口 |⑤-⑥-|
18
口口口口 |①--②|
①④④① |--③-|
②④④② |----|
③口口③ |④---|
19
口口口口 |①---|
③④口口 |----|
②口口口 |--②-|
口①①口 |③-④-|
20
口口⑤口 |①---|
口口①口 |②---|
口④口② |③--④|
口口③口 |--⑤-|
21
口口口口 |----|
口口口口 |----|
口口口口 |----|
口口口口 |----|
22
口①①口 |----|
口口口口 |----|
口口口口 |----|
口口口口 |①---|
23
口口口口 |①---|
口④口③ |②---|
⑥口⑤② |③-④-|
口①①口 |⑤-⑥-|
24
④口口④ |①---|
口③③口 |②---|
口口口② |③---|
口口口① |④---|
25
口口口口 |①---|
口④口③ |②---|
⑥口⑤② |③-④-|
①口口① |⑤-⑥-|
26
口③口口 |①---|
口④口口 |②---|
口⑤口② |③--④|
①口口① |--⑤-|
27
①口口① |----|
③④④② |①---|
③口口② |②-③-|
口口口口 |--④-|
28
口口口③ |--①-|
④口口口 |--②-|
口②②⑤ |--③-|
口①①口 |④-⑤-|
29
口④④口 |①---|
口③②口 |②-③-|
口③②口 |--④-|
①⑤⑤口 |--⑤-|
30
口口③③ |----|
口口②② |----|
口口①① |①--②|
口口口口 |--③-|
31
口口口口 |①---|
①口口口 |--②-|
①③②口 |③---|
口③②口 |----|
32
口口口口 |----|
口口口口 |----|
口口口口 |----|
口口口口 |----|
33
口口口① |①---|
口③口① |--②-|
②口③口 |----|
②口口口 |③---|
34
⑤⑤⑤⑤ |①---|
口口①口 |②---|
口①④口 |③---|
口③②口 |④-⑤-|
35
口口口口 |--①-|
④口口① |②---|
③口⑤② |③-④-|
口⑥口口 |⑤-⑥-|
36
口口口口 |--①-|
③⑥口② |②---|
④口⑤① |③-④-|
口口口口 |⑤-⑥-|
37
口⑥⑥口 |--①-|
口口④① |②-③-|
⑤②口口 |④-⑤-|
口口口③ |--⑥-|
38
⑥⑥⑥⑥ |--①-|
③口口① |②---|
④口⑤② |③-④-|
口口口口 |⑤-⑥-|
39
口口口口 |--①-|
④口口① |②---|
③口⑤② |③-④-|
口⑥口口 |⑤-⑥-|
40
口口口口 |--①-|
④⑥口① |②---|
③口⑤② |③-④-|
口口口口 |⑤-⑥-|
41
口口口口 |--①-|
⑦口④① |②-③-|
⑤②口口 |④-⑤-|
口⑥口③ |⑥-⑦-|
42
⑦⑦⑦⑦ |--①-|
口④口③ |②-③-|
口⑥口口 |④-⑤-|
②口①⑤ |⑥-⑦-|
43
口口口口 |--①-|
①口口④ |②---|
②⑤口③ |③-④-|
口口⑥口 |⑤-⑥-|
44
口口口口 |--①-|
①口⑥④ |②---|
②⑤口③ |③-④-|
口口口口 |⑤-⑥-|
45
口⑥⑥口 |--①-|
①④口口 |②-③-|
口口②⑤ |④-⑤-|
③口口口 |--⑥-|
46
⑥⑥⑥⑥ |--①-|
①口口③ |②---|
②⑤口④ |③-④-|
口口口口 |⑤-⑥-|
47
⑥口口⑥ |--①-|
①口⑤口 |②---|
②④口口 |③-④-|
口口③口 |⑤-⑥-|
48
口口口口 |--①-|
④口口① |②-③-|
⑤⑦⑦② |④-⑤-|
⑥口口③ |⑥-⑦-|
49
③②①口 |----|
口④口口 |①-②-|
口口口口 |③---|
口口口④ |--④-|
50
④④④④ |--①-|
②口③① |--②-|
口口口口 |--③-|
③①②口 |--④-|
51
口口口口 |----|
口④口① |①---|
口口②口 |②---|
口③口口 |③-④-|
52
⑤口②口 |--①-|
口口①④ |--②-|
③口口口 |--③-|
口口口口 |④-⑤-|
53
口口口① |①---|
口口口口 |②---|
口⑤⑥② |③-④-|
口③④口 |⑤-⑥-|
54
口①①口 |--①-|
③口④② |--②-|
口口口口 |③---|
口口口口 |--④-|
55
口①口口 |①---|
口⑤口② |②---|
口口③口 |③---|
口④口口 |④-⑤-|
56
⑤口②口 |--①-|
口口①④ |--②-|
③口口口 |--③-|
口口口口 |④-⑤-|
57
口口口① |①---|
口④③口 |②---|
口口⑤口 |③---|
口口②口 |④-⑤-|
58
③口④口 |①---|
口口口口 |②---|
⑤口⑥口 |③-④-|
①②口口 |⑤-⑥-|
59
口⑦⑥口 |①-②-|
口口②① |③-④-|
⑧口口⑤ |⑤-⑥-|
③④口口 |⑦-⑧-|
60
⑧口口③ |①-②-|
口②⑦口 |③-④-|
口⑥①口 |⑤-⑥-|
④口口⑤ |⑦-⑧-|
61
口⑥口⑤ |①-②-|
①②口口 |③-④-|
口口③④ |⑤-⑥-|
⑧口⑦口 |⑦-⑧-|
62
口口口⑧ |①-②-|
⑦③②口 |③-④-|
口①口④ |⑤-⑥-|
口⑤口⑥ |⑦-⑧-|
63
②①口⑧ |①-②-|
口⑥⑦③ |③-④-|
口口口④ |⑤-⑥-|
口⑤口口 |⑦-⑧-|
64
口①口口 |①-②-|
口口口口 |③-④-|
②口③口
④口口口

口⑧口口
口⑦口⑥
口口口口 |⑤-⑥-|
口口口⑤ |⑦-⑧-|
65
口口口⑦ |①-②-|
⑤口⑥⑧ |③-④-|
口②④① |⑤-⑥-|
口口③口 |⑦-⑧-|
66
口⑤④⑧ |①-②-|
口②口⑧ |③-④-|
①口⑥③ |⑤-⑥-|
口⑦口口 |⑦-⑧-|
67
口口口口 |----|
口①②口 |----|
口口口口 |----|
口口口口 |①-②-|
68
口口口口 |----|
口口口口 |----|
口①②口 |----|
口口口口 |①-②-|
69
口口口口 |----|
④口口口 |①-②-|
口口口口 |--③-|
③①②口 |--④-|
70
口④③口 |----|
口口口② |①---|
口口口① |②---|
口口口口 |③-④-|
71
口口口口 |----|
口②①口 |----|
口口口口 |----|
口口口口 |①-②-|
72
口口口口 |----|
口口口口 |----|
口②①口 |----|
口口口口 |①-②-|
73
口口口口 |----|
口口口③ |①-②-|
口口口口 |--③-|
口②①④ |--④-|
74
口口③口 |----|
口④口口 |①---|
口②口口 |②---|
口①口口 |③-④-|
75
口①口① |----|
①口①③ |①---|
口④口② |②-③-|
口口⑤口 |④-⑤-|
76
口口口口 |--①-|
①口⑥④ |②---|
②⑤口③ |③-④-|
口口口口 |⑤-⑥-|
77
口⑥⑥口 |--①-|
①④口口 |②-③-|
口口②⑤ |④-⑤-|
③口口口 |--⑥-|
78
⑥⑥⑥⑥ |--①-|
①口口③ |②---|
②⑤口④ |③-④-|
口口口口 |⑤-⑥-|
79
⑥口口⑥ |--①-|
①口⑤口 |②---|
②④口口 |③-④-|
口口③口 |⑤-⑥-|
80
口口口口 |--①-|
④口口① |②-③-|
⑤⑦⑦② |④-⑤-|
⑥口口③ |⑥-⑦-|
81
③②①口 |----|
口④口口 |①-②-|
口口口口 |③---|
口口口④ |--④-|
82
④④④④ |--①-|
②口③① |--②-|
口口口口 |--③-|
③①②口 |--④-|
83
口口口口 |----|
口口口口 |----|
口口口口 |----|
口口口口 |----|
84
④口口② |①---|
口口口口 |②---|
口口口口 |③---|
③口口① |④---|
85
口③⑥② |①---|
口⑦④口 |②---|
口⑤⑧口 |③-④-⑤-|
口口口① |⑥-⑦-⑧-|
86
②口口④ |①---|
口口口口 |②---|
口口口口 |③---|
①口口③ |④---|
87
②⑥③口 |①---|
口④⑦口 |②---|
口⑧⑤口 |③-④-⑤-|
①口口口 |⑥-⑦-⑧-|
88
④口口② |①---|
口口口口 |②---|
口口口口 |③---|
③口口① |④---|
89
口③⑥② |①---|
口⑦④口 |②---|
口⑤⑧口 |③-④-⑤-|
口口口① |⑥-⑦-⑧-|
90
②口口④ |①---|
口口口口 |②---|
口口口口 |③---|
①口口③ |④---|
91
②⑥③口 |①---|
口④⑦口 |②---|
口⑧⑤口 |③-④-⑤-|
①口口口 |⑥-⑦-⑧-|

不確定度: 0

最終更新:2014年07月20日 00:52