終末を追う者
S-C-U×PON

BASIC

Level: 5
BPM: 185
Notes: 350

1
口口口口 |----|
口口口口 |----|
口口口口 |----|
口口口口 |----|
2
口口口口 |①---|
口①①口 |----|
口口口口 |----|
口口口口 |----|
3
口口口口 |----|
口口口口 |----|
①口口① |①---|
口口口口 |----|
4
口口口口 |①---|
口口口口 |----|
口口口口 |----|
口①①口 |----|
5
口口口口 |----|
口口口口 |----|
口口口口 |----|
口口口口 |----|
6
口口口口 |①---|
口①①口 |----|
口口口口 |----|
口口口口 |----|
7
口口口口 |----|
口口口口 |----|
①口口① |①---|
口口口口 |----|
8
②①①② |①---|
口口口口 |--②-|
口口口口 |----|
口口口口 |----|
9
口口口口 |----|
口口口口 |----|
口口口口 |----|
口口口口 |----|
10
口口口口 |①---|
口①④口 |②---|
口③②口 |③---|
口口口口 |④---|
11
①口口④ |①---|
口口口口 |②---|
口口口口 |③---|
③口口② |④---|
12
口口口口 |①---|
口①①口 |--②-|
口②②口 |----|
口口口口 |----|
13
口口口口 |----|
口口口口 |----|
口口口口 |----|
口口口口 |----|
14
口口口口 |①---|
口①④口 |②---|
口③②口 |③---|
口口口口 |④---|
15
①口口④ |①---|
口口口口 |②---|
口口口口 |③---|
③口口② |④---|
16
口②②口 |①---|
口①①口 |--②-|
口口口口 |----|
口口口口 |----|
17
口口口口 |①---|
①口口② |②---|
④口口④ |③---|
口③③口 |④---|
18
②口口② |①---|
①①口口 |----|
口①口口 |--②-|
口口口口 |----|
19
口②②口 |①---|
口口①① |----|
口口①口 |--②-|
口口口口 |----|
20
②口口② |①---|
①①口口 |----|
口①口口 |--②-|
口口口口 |----|
21
口④④口 |①---|
①口口① |②---|
②口口② |③---|
口③③口 |④---|
22
②口口② |①---|
①①口口 |----|
口①口口 |--②-|
口口口口 |----|
23
口②②口 |①---|
口口①① |----|
口口①口 |--②-|
口口口口 |----|
24
②口口② |①---|
①①口口 |----|
口①口口 |--②-|
口口口口 |----|
25
口口口口 |①---|
①口口① |②---|
②④④② |③---|
口③③口 |④---|
26
口口口口 |----|
口口口口 |----|
口口口口 |----|
口口口口 |----|
27
①②口口 |①---|
口口口口 |②---|
口口口口 |③---|
口口④③ |④---|
28
口口口口 |①---|
①②口口 |②---|
口口④③ |③---|
口口口口 |④---|
29
口口②① |①---|
口口口口 |②---|
口口口口 |③---|
③④口口 |④---|
30
口口口口 |①---|
口口②① |②---|
③④口口 |③---|
口口口口 |④---|
31
①②口口 |①---|
口口口口 |②---|
口口口口 |③---|
口口④③ |④---|
32
口口口口 |①---|
①②口口 |②---|
口口④③ |③---|
口口口口 |④---|
33
口口②① |①---|
口口口口 |②---|
口口口口 |③---|
③④口口 |④---|
34
口口口口 |①---|
口口②① |②---|
③④口口 |③---|
口口口口 |④---|
35
口①②口 |①---|
③口口④ |②---|
口口口口 |③---|
口口口口 |④---|
36
口口口口 |①---|
口口口口 |②---|
①口口② |③---|
口③口口 |----|
37
②口口① |①---|
口④③口 |②---|
口口口口 |③---|
口口口口 |④---|
38
口口口口 |①---|
口口口口 |②---|
口②①口 |③---|
口口口③ |----|
39
口口口口 |①---|
口口口口 |②---|
口③④口 |③---|
口①②口 |④---|
40
口③④口 |①---|
口①②口 |②---|
口口口口 |③---|
口口口口 |④---|
41
①口口① |①---|
②口口② |②---|
③口口③ |③---|
④口口④ |④---|
42
④③③④ |①---|
口②②口 |②---|
口①①口 |③---|
口口口口 |④---|
43
口③③口 |①---|
②口口② |--②-|
口①①口 |----|
口口口口 |③---|
44
口口口口 |----|
口①②口 |①---|
③口口口 |②---|
口口口口 |③---|
45
口口口口 |①---|
口口口口 |----|
口口口① |②---|
口口②口 |----|
46
口口口口 |----|
口口口口 |----|
口口口口 |----|
口口口口 |----|
47
口③③口 |①---|
②口口② |--②-|
口①①口 |----|
口口口口 |③---|
48
口口口口 |----|
口口①口 |①---|
②口口③ |②---|
口口口口 |③---|
49
口①②口 |①---|
口口口口 |②---|
口口口口 |----|
口口口口 |----|
50
口口口口 |----|
口口口口 |----|
口口口口 |----|
口口口口 |----|
51
口③③口 |①---|
②口口② |--②-|
①口口① |----|
口口口口 |③---|
52
①口口② |----|
口③口口 |①---|
口口口口 |②---|
口口口口 |③---|
53
口口口口 |①---|
口口①口 |----|
口口口口 |----|
口口口口 |----|
54
口口口口 |----|
口口口口 |----|
口口口口 |----|
口口口口 |----|
55
口③③口 |①---|
②口口② |--②-|
①口口① |----|
口口口口 |③---|
56
口口口口 |----|
口口口口 |①---|
口①②口 |②---|
口③口口 |③---|
57
口口口口 |①---|
口口口口 |②---|
口口口口 |③---|
②口①③ |----|
58
口口口口 |①---|
口②②口 |----|
口①①口 |②---|
口口口口 |----|
59
①①④④ |①---|
口口口口 |②---|
口口口③ |③---|
②②口口 |④---|
60
口口口口 |①---|
口口③口 |②---|
②口口口 |③---|
口口①①
61
①①④④ |①---|
口口口口 |②---|
口口口③ |③---|
②②口口 |④---|
62
口口口口 |①---|
口口③口 |②---|
②口口口 |③---|
口口①①
63
①①④④ |①---|
口口口口 |②---|
口口口③ |③---|
②②口口 |④---|
64
口口口口 |①---|
口口③口 |②---|
②口口口 |③---|
口口①①
65
①①④④ |①---|
口口口口 |②---|
口口口③ |③---|
②②口口 |④---|
66
口口口口 |①---|
口口③口 |②---|
②口口口 |③---|
口口①①
67
①①④④ |①---|
口口口口 |②---|
口口口③ |③---|
②②口口 |④---|
68
口口口口 |①---|
口口③④ |②---|
②口口口 |③---|
口口①① |④---|
69
①①④④ |①---|
口口口口 |②---|
口口口③ |③---|
②②口口 |④---|
70
口口口口 |①---|
口口③④ |②---|
②口口口 |③---|
口口①① |④---|
71
①①④④ |①---|
口口口口 |②---|
口口口③ |③---|
②②口口 |④---|
72
口口口口 |①---|
口口③④ |②---|
②口口口 |③---|
口口①① |④---|
73
①①④④ |①---|
口口口口 |②---|
口口口③ |③---|
②②口口 |④---|
74
口口口口 |①---|
口口③④ |②---|
②口口口 |③---|
口口①① |④---|
75
②口口② |①---|
①①口口 |----|
口①口口 |--②-|
口口口口 |----|
76
口②②口 |①---|
口口①① |----|
口口①口 |--②-|
口口口口 |----|
77
②口口② |①---|
①①口口 |----|
口①口口 |--②-|
口口口口 |----|
78
口④④口 |①---|
①口口① |②---|
②口口② |③---|
口③③口 |④---|
79
②口口② |①---|
①①口口 |----|
口①口口 |--②-|
口口口口 |----|
80
口②②口 |①---|
口口①① |----|
口口①口 |--②-|
口口口口 |----|
81
②口口② |①---|
①①口口 |----|
口①口口 |--②-|
口口口口 |----|
82
口口口口 |①---|
①口口① |②---|
②④④② |③---|
口③③口 |④---|
83
①口口① |----|
口①①口 |①---|
口口口口 |----|
口口口口 |----|

不確定度: 0

最終更新:2014年07月20日 00:48