終末を追う者
S-C-U×PON

ADVANCED

Level: 8
BPM: 185
Notes: 595

1
口①②口 |----|
口口口口 |----|
口口口口 |----|
口口口口 |--①②|
2
口口口① |①-②-|
口②口⑤ |③-④-|
口口③口 |--⑤-|
⑥④口口 |⑥---|
3
口①口口 |--①-|
⑤口②口 |②-③-|
口③口⑥ |④--⑤|
口口④口 |--⑥-|
4
口口口② |①---|
口口口口 |--②-|
口口口口 |----|
①①口口 |----|
5
口②①口 |----|
口口口口 |----|
口口口口 |----|
口口口口 |--①②|
6
①口口口 |①-②-|
⑤口②口 |③-④-|
口③口口 |--⑤-|
口口④⑥ |⑥---|
7
口口①口 |--①-|
口②口⑤ |②-③-|
⑥口③口 |④--⑤|
口④口口 |--⑥-|
8
②口口口 |①---|
口口口口 |--②-|
口口口口 |----|
口口①① |----|
9
口①②口 |----|
口口口口 |----|
口口口口 |----|
口口口口 |--①②|
10
口口口① |①-②-|
口②口⑤ |③-④-|
口口③口 |--⑤-|
⑥④口口 |⑥---|
11
口①口口 |--①-|
⑤口②口 |②-③-|
口③口⑥ |④--⑤|
口口④口 |--⑥-|
12
口口口② |①---|
口口口口 |--②-|
口口口口 |----|
①①口口 |----|
13
口②①口 |----|
口口口口 |----|
口口口口 |----|
口口口口 |--①②|
14
①口口口 |①-②-|
⑤口②口 |③-④-|
口③口口 |--⑤-|
口口④⑥ |⑥---|
15
口口①口 |--①-|
口②口⑤ |②-③-|
⑥口③口 |④--⑤|
口④口口 |--⑥-|
16
②口口口 |①---|
口口④③ |--②-|
口口口口 |----|
口口①① |--③④|
17
口口口② |①-②-|
口①口口 |③-④-|
口口口口
③口④口

口口口口
⑨⑩⑪⑫
⑤⑥⑦⑧ |⑤⑥⑦⑧|
口口口口 |⑨⑩⑪⑫|
18
①①口口 |①-②③|
口口口口 |-④⑤-|
口口口口
③⑤④②

口⑧口口
口口口口
⑥口⑥⑦ |--⑥-|
口口口口 |⑦-⑧-|
19
口口①① |①-②③|
②④⑤③ |-④⑤-|
口口口口
口口口口

口口口⑧
口口口口
⑥⑦口⑥ |--⑥-|
口口口口 |⑦-⑧-|
20
①①口口 |①-②③|
口⑦⑧口 |-④⑤-|
⑥口口⑥ |--⑥-|
③⑤④② |⑦-⑧-|
21
①口口② |①-②-|
⑨⑩⑪⑫ |③-④-|
⑤⑥⑦⑧ |⑤⑥⑦⑧|
口③④口 |⑨⑩⑪⑫|
22
①①口口 |①-②③|
口口口口 |-④⑤-|
口口口口
③⑤④②

口⑧口口
口口口口
⑥口⑥⑦ |--⑥-|
口口口口 |⑦-⑧-|
23
口口①① |①-②③|
②④⑤③ |-④⑤-|
口口口口
口口口口

口口口⑧
口口口口
⑥⑦口⑥ |--⑥-|
口口口口 |⑦-⑧-|
24
①①口口 |①-②③|
口⑦⑧口 |-④⑤-|
⑥口口⑥ |--⑥-|
③⑤④② |⑦-⑧-|
25
①口口② |①-②-|
⑨⑩⑪⑫ |③-④-|
⑤⑥⑦⑧ |⑤⑥⑦⑧|
口③④口 |⑨⑩⑪⑫|
26
口口口口 |----|
口口口口 |----|
口口口口 |----|
口口口口 |----|
27
口⑥①口 |①-②-|
口口④⑦ |③-④-|
⑧③口⑤ |⑤-⑥-|
口口②口 |⑦-⑧-|
28
⑦口口⑧ |①-②-|
口①⑥口 |③-④-|
口⑤②口 |⑤-⑥-|
口③④口 |⑦-⑧-|
29
⑥①口口 |①-②-|
口④⑦② |③-④-|
③口⑤口 |⑤-⑥-|
⑧口口口 |⑦-⑧-|
30
口④口⑤ |①-②-|
口⑥口③ |③-④-|
口口⑦① |⑤-⑥-|
⑧②口口 |⑦-⑧-|
31
口⑥①口 |①-②-|
口口④⑦ |③-④-|
⑧③口⑤ |⑤-⑥-|
口口②口 |⑦-⑧-|
32
⑦口口⑧ |①-②-|
口①⑥口 |③-④-|
口⑤②口 |⑤-⑥-|
口③④口 |⑦-⑧-|
33
⑥①口口 |①-②-|
口④⑦② |③-④-|
③口⑤口 |⑤-⑥-|
⑧口口口 |⑦-⑧-|
34
口④口⑤ |①-②-|
口⑥口③ |③-④-|
口口⑦① |⑤-⑥-|
⑧②口口 |⑦-⑧-|
35
口口①⑤ |①-②-|
④口⑥口 |③-④-|
口⑦口③ |--⑤-|
口②口口 |⑥-⑦-|
36
口口口口 |----|
口口口口 |----|
口口口口 |----|
口口口① |--①-|
37
⑤①口④ |①-②-|
③⑥口口 |③-④-|
口口⑦② |--⑤-|
口口口口 |⑥-⑦-|
38
口①口口 |----|
口口口口 |----|
口口口口 |----|
口口口口 |--①-|
39
⑦口②⑧ |①-②-|
口③①⑥ |③-④-|
⑤口口口 |⑤-⑥-|
口口口④ |⑦-⑧-|
40
口①②口 |①--②|
口③口口 |--③-|
口口④⑥ |④-⑤-|
口⑤口口 |--⑥-|
41
①③④② |①--②|
口⑦口口 |--③-|
口口⑥口 |④-⑤-|
口⑤口口 |⑥-⑦-|
42
②③③① |①--②|
②口口① |--③-|
④口口④ |--④-|
④口口④ |----|
43
口⑤口① |①-②-|
口②⑤口 |③-④-|
口⑥③口 |--⑤-|
口④⑥口 |⑥---|
44
①口⑥口 |--①-|
③⑤口口 |②-③-|
口口口④ |④--⑤|
口口口② |--⑥-|
45
口口口口 |①-②-|
口口口② |③-④-|
口③口口 |----|
①口④口 |----|
46
口口口口 |----|
口口口口 |----|
口口口口 |----|
口口口口 |----|
47
口⑤①口 |①-②-|
口②⑤口 |③-④-|
口⑥③口 |--⑤-|
口④⑥口 |⑥---|
48
口口口⑥ |--①-|
①⑤口④ |②-③-|
口口口② |④--⑤|
③口口口 |--⑥-|
49
口④④口 |①-②-|
①口①口 |③-④-|
③口③口 |----|
口②口② |----|
50
口口口口 |----|
口口口口 |----|
口口①口 |----|
口口口口 |--①-|
51
①口口⑤ |①-②-|
⑤口口② |③-④-|
③口口⑥ |--⑤-|
⑥口口④ |⑥---|
52
口②口口 |--①-|
⑥口③⑥ |②-③-|
口④①口 |④-⑤-|
口口⑤口 |--⑥-|
53
口口口口 |①---|
口口口口 |----|
口口口口 |----|
①口口① |----|
54
口口口口 |----|
口口口口 |----|
口①口口 |----|
口口口口 |--①-|
55
⑤口口① |①-②-|
②口口⑤ |③-④-|
⑥口口③ |--⑤-|
④口口⑥ |⑥---|
56
口口口口 |--①-|
⑥口①口 |②-③-|
口②⑤口 |④--⑤|
口④③口 |--⑥-|
57
④口④口 |①-②-|
口①口① |③-④-|
口③口③
②口口②

口口口口
口⑥⑤口
口口口口 |----|
口口口口 |--⑤⑥|
58
口⑥⑥② |①-②-|
①口口口 |③-④-|
口③口⑤ |--⑤-|
口口④口 |⑥---|
59
⑧口口① |①-②-|
口⑤④口 |③-④⑤|
③⑦⑥口 |-⑥⑦-|
⑨口口② |⑧-⑨-|
60
口②③口 |①-②③|
⑥口口① |-④⑤-|
口口口⑦ |⑥-⑦-|
口④⑤口
61
⑧口口① |①-②-|
口⑤④口 |③-④⑤|
③⑦⑥口 |-⑥⑦-|
⑨口口② |⑧-⑨-|
62
口②③口 |①-②③|
⑥口口① |-④⑤-|
口口口⑦ |⑥-⑦-|
口④⑤口
63
⑧口口① |①-②-|
口⑤④口 |③-④⑤|
③⑦⑥口 |-⑥⑦-|
⑨口口② |⑧-⑨-|
64
口②③口 |①-②③|
⑥口口① |-④⑤-|
口口口⑦ |⑥-⑦-|
口④⑤口
65
⑧口口① |①-②-|
口⑤④口 |③-④⑤|
③⑦⑥口 |-⑥⑦-|
⑨口口② |⑧-⑨-|
66
口②③口 |①-②③|
⑥口口① |-④⑤-|
口口口⑦ |⑥-⑦-|
口④⑤口
67
⑧口口① |①-②-|
口⑤④口 |③-④⑤|
③⑦⑥口 |-⑥⑦-|
⑨口口② |⑧-⑨-|
68
口②③口 |①-②③|
口⑥口① |-④⑤-|
口⑧⑦⑨ |⑥-⑦-|
口④⑤口 |⑧-⑨-|
69
⑧口口① |①-②-|
口⑤④口 |③-④⑤|
③⑦⑥口 |-⑥⑦-|
⑨口口② |⑧-⑨-|
70
口②③口 |①-②③|
口⑥口① |-④⑤-|
口⑧⑦⑨ |⑥-⑦-|
口④⑤口 |⑧-⑨-|
71
⑧口口① |①-②-|
口⑤④口 |③-④⑤|
③⑦⑥口 |-⑥⑦-|
⑨口口② |⑧-⑨-|
72
口②③口 |①-②③|
口⑥口① |-④⑤-|
口⑧⑦⑨ |⑥-⑦-|
口④⑤口 |⑧-⑨-|
73
⑧口口① |①-②-|
口⑤④口 |③-④⑤|
③⑦⑥口 |-⑥⑦-|
⑨口口② |⑧-⑨-|
74
口②③口 |①-②③|
口口口① |-④⑤-|
口口口口
口④⑤口

口口口口
⑩⑪⑫⑬
⑥⑦⑧⑨ |⑥⑦⑧⑨|
口口口口 |⑩⑪⑫⑬|
75
①①口口 |①-②③|
口口口口 |-④⑤-|
口口口口
③⑤④②

口⑧口口
口口口口
⑥口⑥⑦ |--⑥-|
口口口口 |⑦-⑧-|
76
口口①① |①-②③|
②④⑤③ |-④⑤-|
口口口口
口口口口

口口口⑧
口口口口
⑥⑦口⑥ |--⑥-|
口口口口 |⑦-⑧-|
77
①①口口 |①-②③|
口⑦⑧口 |-④⑤-|
⑥口口⑥ |--⑥-|
③⑤④② |⑦-⑧-|
78
①口口② |①-②-|
⑨⑩⑪⑫ |③-④-|
⑤⑥⑦⑧ |⑤⑥⑦⑧|
口③④口 |⑨⑩⑪⑫|
79
①①口口 |①-②③|
口口口口 |-④⑤-|
口口口口
③⑤④②

口⑧口口
口口口口
⑥口⑥⑦ |--⑥-|
口口口口 |⑦-⑧-|
80
口口①① |①-②③|
②④⑤③ |-④⑤-|
口口口口
口口口口

口口口⑧
口口口口
⑥⑦口⑥ |--⑥-|
口口口口 |⑦-⑧-|
81
①①口口 |①-②③|
口⑦⑧口 |-④⑤-|
⑥口口⑥ |--⑥-|
③⑤④② |⑦-⑧-|
82
①口口② |①-②-|
⑨⑩⑪⑫ |③-④-|
⑤⑥⑦⑧ |⑤⑥⑦⑧|
口③④口 |⑨⑩⑪⑫|
83
口①①口 |----|
口口口口 |①---|
口口口口 |----|
口①①口 |----|

不確定度: 0

最終更新:2014年07月20日 00:48