カラルの月
猫叉劇団

BASIC

Level: 4
BPM: 135
Notes: 267

1
口口口口 |----|
口口口口 |----|
口口口口 |----|
口口口口 |----|
2
口口口口 |①---|
②口口① |----|
口口口口 |②---|
口口口口 |----|
3
口口口口 |①---|
口口口口 |----|
口②①口 |②---|
口口口口 |----|
4
口口口口 |①-②-|
口③②① |③---|
口口口口 |----|
口口口口 |----|
5
口口口口 |①-②-|
①②③口 |③---|
口口口④ |----|
口口口口 |④---|
6
口口口口 |①---|
口口口① |----|
③口口口 |②---|
②口口口 |③---|
7
口口口口 |①---|
①口口④ |②---|
口口口③ |③---|
口口口② |④---|
8
口①①口 |①---|
口口口④ |②---|
③口口口 |③---|
②口口口 |④---|
9
口口口口 |①---|
③②①口 |②---|
口口口口 |③---|
口口口口 |----|
10
口①①口 |①---|
④口口口 |②---|
口口口③ |③---|
口口口② |④---|
11
口口口口 |①---|
口①②③ |②---|
口口口口 |③---|
口口口口 |----|
12
口口口② |①---|
口口口③ |②---|
④口口口 |③---|
口①①口 |④---|
13
口口口口 |①---|
口口④口 |②---|
口①②③ |③---|
口口口口 |④---|
14
②口口口 |①---|
③口口口 |②---|
口口口④ |③---|
口①①口 |④---|
15
口口口口 |①---|
口④口口 |②---|
③②①口 |③---|
口口口口 |④---|
16
口①①口 |①---|
口口口④ |②---|
口③口口 |③---|
口②口口 |④---|
17
口口口口 |①---|
③②①口 |②---|
口口口口 |③---|
口口口口 |----|
18
口①①口 |①---|
④口口口 |②---|
口口③口 |③---|
口口②口 |④---|
19
口口口口 |①---|
口①②③ |②---|
口口口口 |③---|
口口口口 |----|
20
口口口口 |①---|
口口口口 |----|
口口口口 |----|
口①①口 |----|
21
口口口口 |①---|
口②③口 |②---|
④①①口 |③---|
口口口口 |④---|
22
口②口口 |①---|
口③口口 |②---|
口口口④ |③---|
口口①口 |④---|
23
口口口口 |①---|
口口口口 |----|
②口①② |②---|
口③③口 |③---|
24
口口口口 |①---|
口②①口 |----|
口口口口 |②---|
口口口口 |----|
25
口口口口 |①---|
口口口口 |----|
口②①口 |②---|
口口口口 |----|
26
口口口口 |①---|
②口口① |----|
口口口口 |②---|
口口口口 |----|
27
口口口口 |①---|
口口口口 |----|
②口口① |②---|
口口口口 |----|
28
②口口① |①---|
口口口口 |----|
口口口口 |②---|
口口口口 |----|
29
口口口口 |①---|
口口口口 |----|
口口口口 |②---|
②口口① |----|
30
口口口口 |①---|
②口口① |----|
口口口口 |②---|
口口口口 |----|
31
口口口口 |①---|
口口口口 |----|
②口口① |②---|
口口口口 |----|
32
口口口口 |①---|
④③①② |②---|
口口口口 |③---|
口口口口 |④---|
33
口口口口 |①---|
口口口口 |②---|
④③①② |③---|
口口口口 |④---|
34
口口口口 |①---|
④③①② |②---|
口口口口 |③---|
口口口口 |④---|
35
口口口口 |①---|
口口口口 |②---|
④③①② |③---|
口口口口 |④---|
36
④口口② |①---|
口③①口 |②---|
口口口口 |③---|
口口口口 |④---|
37
口口口口 |①---|
口口口口 |②---|
口③①口 |③---|
④口口② |④---|
38
口④②口 |①---|
口③①口 |②---|
口口口口 |③---|
口口口口 |④---|
39
口口口口 |①---|
口口口口 |②---|
口③①口 |③---|
口④②口 |④---|
40
口口口口 |----|
口口口口 |----|
口口口口 |----|
口口口口 |----|
41
口口口口 |①---|
①②口① |②---|
④③口口 |③---|
口口口口 |④---|
42
口口①① |①---|
口口②② |②---|
口口③③ |③---|
口口口口 |----|
43
口口口口 |①---|
口口口口 |②---|
②③口口 |③---|
①④口① |④---|
44
口口口口 |①---|
口口③③ |②---|
口口②② |③---|
口口①① |----|
45
①②口① |①---|
④③口口 |②---|
口口口口 |③---|
口口口口 |④---|
46
口口③③ |①---|
口口②② |②---|
口口①① |③---|
口口口口 |----|
47
口口口口 |①---|
②③口口 |②---|
①④口① |③---|
口口口口 |④---|
48
口口口口 |①---|
口口口口 |----|
口口②② |②---|
口口①① |----|
49
口口口口 |①---|
①②②① |②---|
④③③④ |③---|
口口口口 |④---|
50
口口①① |①---|
口④②② |②---|
口口③③ |③---|
口口口口 |④---|
51
口口口口 |①---|
口口口口 |②---|
②③③② |③---|
①④口① |④---|
52
口口口口 |①---|
口口③③ |②---|
口④②② |③---|
口口①① |④---|
53
①②②① |①---|
④③③口 |②---|
口口口口 |③---|
口口口口 |④---|
54
口口③③ |①---|
口④②② |②---|
口口①① |③---|
口口口口 |④---|
55
口口口口 |①---|
②③③② |②---|
①④④① |③---|
口口口口 |④---|
56
口口口口 |①---|
口口口口 |②---|
②口口口 |③---|
③口①① |----|
57
口口口口 |①---|
④③②① |②---|
口口口口 |③---|
口口口口 |④---|
58
口口口口 |①---|
口口口口 |②---|
④③②① |③---|
口口口口 |④---|
59
口口口口 |①---|
④③②① |②---|
口口口口 |③---|
口口口口 |④---|
60
口口口口 |①---|
口口口口 |②---|
口口口口 |③---|
④③②① |④---|
61
口③口① |①---|
④口②口 |②---|
口口口口 |③---|
口口口口 |④---|
62
口口口口 |①---|
口口口口 |②---|
④口②口 |③---|
口③口① |④---|
63
④口②口 |①---|
口③口① |②---|
口口口口 |③---|
口口口口 |④---|
64
口口口口 |①---|
口口口口 |②---|
口③口① |③---|
④口②口 |④---|
65
口口口口 |①---|
口口②① |②---|
④③口口 |③---|
口口口口 |④---|
66
口口口口 |①---|
口口口口 |----|
口口口口 |----|
口口①① |----|

不確定度: 0

最終更新:2014年07月20日 00:45