黒髪乱れし修羅となりて
村正クオリア

BASIC

Level: 3
BPM: 150
Notes: 246

1
口口口口 |----|
口口口口 |----|
口口口口 |----|
口口口口 |----|
2
口口口口 |①---|
口①①口 |----|
口口口口 |----|
口口口口 |----|
3
口口口口 |①---|
口口口口 |----|
口①①口 |----|
口口口口 |----|
4
口口口口 |①---|
①口口① |----|
口口口口 |----|
口口口口 |----|
5
口口口口 |①---|
口口口口 |----|
①口口① |----|
口口口口 |----|
6
口口口口 |①---|
口口①口 |②---|
口口②口 |----|
口口口口 |----|
7
口口口口 |①---|
口①口口 |②---|
口②口口 |----|
口口口口 |----|
8
口口口口 |①---|
口口口① |②---|
口口口② |----|
口口口口 |----|
9
口口口口 |①---|
①口口口 |②---|
②口口口 |----|
口口口口 |----|
10
口口口口 |①---|
口①①口 |----|
口口口口 |----|
口口口口 |----|
11
口口口口 |----|
口口口口 |----|
口口口口 |----|
口口口口 |----|
12
口口口口 |①---|
口口口口 |----|
口①①口 |----|
口口口口 |----|
13
口口口口 |----|
口口口口 |----|
口口口口 |----|
口口口口 |----|
14
口口口口 |①---|
口①①口 |----|
口口口口 |----|
口口口口 |----|
15
口口口口 |----|
口口口口 |----|
口口口口 |----|
口口口口 |----|
16
口口口口 |①---|
口口口口 |----|
口①①口 |----|
口口口口 |----|
17
口口口口 |①---|
①口口① |----|
口③②口 |②---|
口口口口 |③---|
18
口口口口 |①---|
口口口口 |----|
口口口口 |②---|
①③②① |③---|
19
口口口口 |①---|
口口口口 |----|
①③②① |②---|
口口口口 |③---|
20
口口口口 |①---|
①③②① |----|
口口口口 |②---|
口口口口 |③---|
21
①口口① |①---|
口②②口 |----|
口口口口 |②---|
口口口口 |----|
22
口口口口 |①---|
口口口口 |----|
口口口口 |②---|
①③②① |③---|
23
口口口口 |①---|
口口口口 |----|
①③②① |②---|
口口口口 |③---|
24
口口口口 |①---|
①③②① |----|
口口口口 |②---|
口口口口 |③---|
25
①口口① |①---|
口②②口 |----|
口口口口 |②---|
口口口口 |----|
26
口口口口 |①---|
口口口口 |----|
口②②口 |②---|
口①①口 |----|
27
口②②口 |①---|
口①①口 |----|
口口口口 |②---|
口口口口 |----|
28
口口口口 |①---|
①口口① |----|
②口口② |②---|
口口口口 |----|
29
口口口口 |①---|
口①①口 |----|
口①①口 |----|
口口口口 |----|
30
口口口口 |①---|
口口口口 |----|
口②②口 |②---|
口①①口 |----|
31
口②②口 |①---|
口①①口 |----|
口口口口 |②---|
口口口口 |----|
32
口口口口 |①---|
①口口① |----|
②口口② |②---|
口口口口 |----|
33
口口口口 |①---|
口①①口 |----|
口①①口 |----|
口口口口 |----|
34
口口口口 |①---|
③口口③ |----|
②①①② |②---|
口口口口 |③---|
35
口口口口 |①---|
口①①口 |----|
口口口口 |----|
口口口口 |----|
36
口口口口 |①---|
③口口③ |----|
②①①② |②---|
口口口口 |③---|
37
口口口口 |①---|
口①①口 |----|
口口口口 |----|
口口口口 |----|
38
口口口口 |①---|
③口口③ |----|
②①①② |②---|
口口口口 |③---|
39
口口口口 |①---|
口①①口 |----|
口口口口 |----|
口口口口 |----|
40
口口口口 |①---|
③口口③ |----|
②①①② |②---|
口口口口 |③---|
41
口口口口 |①---|
口①①口 |----|
口口口口 |----|
口口口口 |----|
42
口口口口 |①---|
口口口口 |②---|
④③②① |③---|
口口口口 |④---|
43
口口口口 |①---|
①②③④ |②---|
口口口口 |③---|
口口口口 |④---|
44
口口口口 |①---|
口口口口 |②---|
④③②① |③---|
口口口口 |④---|
45
口口口口 |①---|
②①①② |----|
口口口口 |②---|
口口口口 |----|
46
口口口口 |①---|
口口口口 |②---|
④③②① |③---|
口口口口 |④---|
47
口口口口 |①---|
①②③④ |②---|
口口口口 |③---|
口口口口 |④---|
48
口口口口 |①---|
口口口口 |②---|
④③②① |③---|
口口口口 |④---|
49
口口口口 |①---|
②①①② |----|
口口口口 |②---|
口口口口 |----|
50
口口口口 |①---|
口口口口 |----|
口口口口 |②---|
①③②① |③---|
51
口口口口 |①---|
口口口口 |----|
①③②① |②---|
口口口口 |③---|
52
口口口口 |①---|
①③②① |----|
口口口口 |②---|
口口口口 |③---|
53
①口口① |①---|
口②②口 |----|
口口口口 |②---|
口口口口 |----|
54
口口口口 |①---|
口口口口 |----|
口口口口 |②---|
①③②① |③---|
55
口口口口 |①---|
口口口口 |----|
①③②① |②---|
口口口口 |③---|
56
口口口口 |①---|
①③②① |----|
口口口口 |②---|
口口口口 |③---|
57
①口口① |①---|
口②②口 |----|
口口口口 |②---|
口口口口 |----|
58
口口口口 |①---|
口口口口 |----|
口①①口 |----|
口口口口 |----|
59
口口口口 |①---|
口①①口 |----|
口口口口 |----|
口口口口 |----|
60
口④口口 |①---|
口口③口 |②---|
口②口口 |③---|
口口①口 |④---|
61
口口①口 |①---|
口②口口 |②---|
口口③口 |③---|
口④口口 |④---|
62
口口口口 |①---|
口口口口 |----|
①口口① |----|
口口口口 |----|
63
口口口口 |①---|
①口口① |----|
口口口口 |----|
口口口口 |----|
64
口④口口 |①---|
口口③口 |②---|
口②口口 |③---|
口口①口 |④---|
65
口口①口 |①---|
口②口口 |②---|
口口③口 |③---|
口④口口 |④---|
66
口口口口 |①---|
口口口口 |----|
①口口① |----|
口口口口 |----|
67
口口口口 |①---|
①口口① |----|
口口口口 |----|
口口口口 |----|
68
口口口口 |①---|
口口口口 |----|
口①①口 |----|
口口口口 |----|
69
口口口口 |①---|
口①①口 |----|
口①①口 |----|
口口口口 |----|
70
口口口口 |①---|
口口口口 |----|
口②②口 |②---|
口①①口 |----|
71
口②②口 |①---|
口①①口 |----|
口口口口 |②---|
口口口口 |----|
72
口口口口 |①---|
①口口① |----|
②口口② |②---|
口口口口 |----|
73
口口口口 |①---|
口①①口 |----|
口①①口 |----|
口口口口 |----|
74
口口口口 |①---|
口①①口 |----|
口①①口 |----|
口口口口 |----|
75
口口口口 |①---|
口①①口 |----|
口①①口 |----|
口口口口 |----|

不確定度: 0

最終更新:2014年07月20日 00:43