都会征服Girls☆
日向美ビタースイーツ♪

EXTREME

Level: 8
BPM: 140
Notes: 719

1
口口口口 |----|
口口口口 |----|
口口口口 |----|
口口口口 |----|
2
⑧③⑦④ |①-②-|
⑨⑥②⑨ |③④-⑤|
⑧③⑦④ |--⑥-|
口①⑤口 |⑦⑧-⑨|
3
口口③③ |--①-|
口口口口 |②-③-|
口口口口
②②①①

⑤⑤口口
⑤口口口
④④⑤口 |④---|
口口口⑤ |⑤---|
4
口口③口 |①-②-|
⑤④口① |③④-⑤|
⑤口口①
②②口口

口⑦口口
口口⑧⑨
口口口⑨ |--⑥-|
口口⑥⑥ |⑦⑧-⑨|
5
口口②口 |--①-|
口③口口 |②③-④|
口④④口
①①口口

⑤口口⑤
⑦口口⑦
口口口口 |--⑤-|
⑥口口⑥ |⑥-⑦-|
6
口②口③ |①-②-|
口⑤①口 |③④-⑤|
④②口口
口⑤①口

⑦口⑥口
口口⑨口
口口⑥⑧ |--⑥-|
口口⑨口 |⑦⑧-⑨|
7
⑤⑤⑥⑥ |--①-|
⑤①口⑥ |②③-④|
口④④口 |⑤---|
③①口② |⑥---|
8
口②口口 |①-②-|
②④口口 |③④-⑤|
⑤口③口
⑤⑤①①

口口⑥口
口口⑧⑥
口⑦口⑨ |--⑥-|
口口⑨⑨ |⑦⑧-⑨|
9
④①口④ |--①-|
①③口口 |②③-④|
口口②口
口口口口

口口口口
⑥口⑤口
口⑤口⑥ |--⑤-|
⑦口口⑦ |⑥-⑦-|
10
口②口② |①---|
口口②③ |②-③-|
口②口口
口①①口

④口口口
⑤⑤口口
⑤口⑥⑥ |④---|
⑤⑤⑥⑥ |⑤-⑥-|
11
口①②口 |①-②-|
⑤口④③ |③④-⑤|
⑥⑦⑧口 |--⑥-|
口口口口 |⑦-⑧-|
12
口④③口 |①---|
口口口口 |②-③④|
口口口口
口②口①

⑥口口⑥
口口口口
口口口口 |--⑤-|
⑤口口⑤ |⑥---|
13
⑥④⑤⑥ |①-②-|
②口口① |③-④⑤|
口口口口 |--⑥-|
⑦口③⑦ |⑦---|
14
口④③口 |①-②-|
④⑤②③ |③---|
①②⑤⑥ |④-⑤-|
口①⑥口 |⑥---|
15
⑤⑤③⑥ |①-②-|
⑥口①口 |③-④-|
口②口⑥ |⑤---|
⑥④⑤⑤ |⑥---|
16
口⑤④口 |①-②-|
口⑧口⑥ |③-④⑤|
⑨③⑦口 |-⑥⑦⑧|
口①②口 |⑨---|
17
⑧④⑤口 |①②③④|
⑥⑦③⑨ |⑤-⑥⑦|
⑩②口口 |-⑧⑨⑩|
口口①⑪ |⑪---|
18
口③④口 |①-②-|
③②⑤④ |③---|
⑥⑤②① |④-⑤-|
口⑥①口 |⑥---|
19
⑥③⑤⑤ |①-②-|
口①口⑥ |③-④-|
⑥口②口 |⑤---|
⑤⑤④⑥ |⑥---|
20
⑥⑧⑦⑤ |①-②-|
口①①口 |③④--|
口④③口 |--⑤⑥|
口②口口 |⑦⑧--|
21
口口口口 |--①-|
口口口① |②-③-|
口口口②
口口口③

④⑥口口
口口⑤⑦
④⑥口口 |④-⑤⑥|
口口口口 |--⑦-|
22
口④口口 |--①-|
⑥口口⑤ |②③--|
口③②口 |--④-|
口①口口 |⑤⑥--|
23
⑤⑤⑩⑩ |①②③④|
⑥②①⑦ |-⑤--|
⑧口③口 |⑥⑦⑧⑨|
④④⑨⑨ |-⑩--|
24
口口口口 |--①-|
口①口口 |②③--|
口③②口 |--④⑤|
④⑥⑦⑤ |⑥⑦--|
25
④⑥口① |--①-|
口口口② |②-③-|
④⑥口③ |④-⑤⑥|
口口⑤⑦ |--⑦-|
26
口口⑥⑤ |①②-③|
③④口口 |④-⑤⑥|
口口②①
口口口口

⑨⑨口口
口口⑧口
口⑦⑧口 |--⑦⑧|
口⑦口口 |⑨---|
27
口口②① |①②-③|
③④口口 |④-⑤⑥|
口口⑥⑤ |----|
口口口口 |----|
28
口⑤⑥口 |①---|
口③④口 |②---③-|
口口②口 |④---⑤-|
口①口口 |⑥---|
29
②口口① |①-②-③-|
④口口③ |④---⑤-|
口口口口 |⑥---|
口⑤⑥口 |----|
30
口口①口 |①---|
口②口⑦ |②---③-|
口④③口 |④---⑤-|
口⑥⑤口 |⑥---⑦-|
31
口③②口 |①---②-|
①⑤④口 |③---④-|
口口口口 |⑤---|
口口口口 |----|
32
⑨⑨④④ |①-②-③-|
⑤③⑧⑩ |④---⑤-|
口⑦②口 |⑥-⑦-⑧-|
口①⑥口 |⑨---⑩-|
33
⑪⑩口口 |①②③④|
⑥⑤⑨口 |⑤---⑥-|
口⑧④③ |⑦-⑧-⑨-|
①②⑦口 |⑩---⑪-|
34
口口①① |①-②-③-|
②②口口 |④-⑤-⑥-|
⑥⑥③③
④④⑤⑤

⑧⑧⑨⑨
⑩⑩⑦⑦
口口口口 |⑦-⑧-⑨-|
⑪⑪口口 |⑩---⑪-|
35
④④口口 |①---②-|
口口②② |③---④-|
③③⑤⑤ |⑤---|
口口①① |----|
36
口②口② |①---|
①口①口 |----|
口②口② |②---|
①口①口 |----|
37
①口①口 |①---|
③②③② |②---|
①口①口 |③---|
③②③② |----|
38
口口②口 |①---|
②①③口 |②-③-|
口③①②
口②口口

④⑤口口
口⑥口⑤
⑤口⑥口 |④---|
口口⑤④ |⑤-⑥-|
39
②口①① |①---|
②口口口 |②-③-|
口③口②
①①口②

口⑤⑥口
口⑦④口
口口口口 |④-⑤-|
口口口口 |⑥-⑦-|
40
②⑥⑥② |①---|
⑤④④⑤ |②-③-|
②①①② |④---|
⑤③③⑤ |⑤-⑥-|
41
①口口① |①---|
口口口口 |②-③-|
口①①口
口③②口

口口口口
⑤口口④
口⑦口口 |④-⑤-|
口口口⑥ |⑥-⑦-|
42
③口①① |①--②|
口口②② |--③-|
③口口口
口口口口

口④⑤⑤
口口口口
口④口口 |④---|
⑤⑤口口 |⑤---|
43
口③口口 |①--②|
口口④① |--③④|
口口口②
口口口口

⑥口口⑥
⑥口口⑥
口⑤口口 |⑤---|
⑦口口口 |⑥-⑦-|
44
⑧⑥⑦⑧ |①-②-|
⑧口⑤⑧ |③-④-|
①④口③ |⑤-⑥⑦|
口口口② |--⑧-|
45
口口口口 |--①-|
口②①口 |②-③-|
口④③口 |④-⑤-|
⑥口口⑤ |⑥---|
46
口口②口 |①---|
②①③口 |②-③-|
口③①②
口②口口

④⑤口口
口⑥口⑤
⑤口⑥口 |④---|
口口⑤④ |⑤-⑥-|
47
②口①① |①---|
②口口口 |②-③-|
口③口②
①①口②

口⑤⑥口
口⑦④口
口口口口 |④-⑤-|
口口口口 |⑥-⑦-|
48
②⑥⑥② |①---|
⑤④④⑤ |②-③-|
②①①② |④---|
⑤③③⑤ |⑤-⑥-|
49
①口口① |①---|
口口口口 |②-③-|
口①①口
口③②口

口口口口
⑤口口④
口⑦口口 |④-⑤-|
口口口⑥ |⑥-⑦-|
50
③口①① |①--②|
口口②② |--③-|
③口口口
口口口口

口④⑤⑤
口口口口
口④口口 |④---|
⑤⑤口口 |⑤---|
51
④④④④ |①--②|
口口⑤① |--③-|
口⑤口② |④---|
③口口口 |--⑤-|
52
③口口② |①---|
口①口口 |②---|
口口①口 |③---|
②④④③ |④---|
53
口①①口 |①--②|
⑤②②⑤ |--③-|
口④④口 |④---|
口③③口 |⑤---|
54
⑧③⑦④ |①-②-|
⑨⑥②⑨ |③④-⑤|
⑧③⑦④ |--⑥-|
口①⑤口 |⑦⑧-⑨|
55
口口③③ |--①-|
口口口口 |②-③-|
口口口口
②②①①

⑤⑤口口
⑤口口口
④④⑤口 |④---|
口口口⑤ |⑤---|
56
口口③口 |①-②-|
⑤④口① |③④-⑤|
⑤口口①
②②口口

口⑦口口
口口⑧⑨
口口口⑨ |--⑥-|
口口⑥⑥ |⑦⑧-⑨|
57
口口②口 |--①-|
口③口口 |②③-④|
口④④口
①①口口

⑤口口⑤
⑦口口⑦
口口口口 |--⑤-|
⑥口口⑥ |⑥-⑦-|
58
口②口③ |①-②-|
口⑤①口 |③④-⑤|
④②口口
口⑤①口

⑦口⑥口
口口⑨口
口口⑥⑧ |--⑥-|
口口⑨口 |⑦⑧-⑨|
59
⑤⑤⑥⑥ |--①-|
⑤①口⑥ |②③-④|
口④④口 |⑤---|
③①口② |⑥---|
60
口②口口 |①-②-|
②④口口 |③④-⑤|
⑤口③口
⑤⑤①①

口口⑥口
口口⑧⑥
口⑦口⑨ |--⑥-|
口口⑨⑨ |⑦⑧-⑨|
61
④①口④ |--①-|
①③口口 |②③-④|
口口②口
口口口口

口口口口
⑥口⑤口
口⑤口⑥ |--⑤-|
⑦口口⑦ |⑥-⑦-|
62
口②口② |①---|
口口②③ |②-③-|
口②口口
口①①口

④口口口
⑤⑤口口
⑤口⑥⑥ |④---|
⑤⑤⑥⑥ |⑤-⑥-|
63
口①②口 |①-②-|
⑤口④③ |③④-⑤|
口口口口 |----|
口口口口 |----|
64
⑥口口⑤ |①②③④|
口口口口 |-⑤-⑥|
口口口口
①③④②

口⑦⑦口
口⑦口⑦
⑦⑦口口 |----|
⑦⑦口口 |⑦---|

不確定度: 0

最終更新:2014年12月11日 23:32