バンブーソード・ガール
cosMo@暴走P

EXTREME

Level: 10
BPM: 208
Notes: 896

1
口口口口 |----|
口口口口 |----|
口口口口 |----|
口口口口 |----|
2
①①①① |①---|
③③③③ |②---|
②②②② |③---|
⑤④④⑤ |④-⑤-|
3
口④①口 |--①-|
口口口口 |②-③-|
②口⑤③ |④-⑤-|
口⑥口⑦ |⑥-⑦-|
4
①口②⑤ |①---|
口①口② |②---|
⑤④口③ |③-④-|
④口③口 |--⑤-|
5
②④④口 |--①-|
④①口④ |②---|
口口①口 |③---|
口③③② |④---|
6
④口口② |①-②-|
口③①口 |③-④-|
⑤⑥⑦⑧ |⑤⑥⑦⑧|
⑨⑩⑪口 |⑨⑩⑪-|
7
⑦③②⑥ |①-②③|
口⑤④① |④⑤⑥⑦|
口口⑩⑨ |⑧-⑨-|
口口口⑧ |⑩---|
8
口④②⑤ |①-②-|
③⑥⑩① |③-④-|
口⑦口⑩ |⑤--⑥⑦⑧|
口⑧⑨口 |⑨-⑩-|
9
口⑥⑥口 |①--②|
②口口① |--③-|
④⑤③口 |④-⑤-|
②口口① |⑥---|
10
④口口② |①-②-|
口③①口 |③-④-|
⑤⑥⑦⑧ |⑤⑥⑦⑧|
⑨⑩⑪口 |⑨⑩⑪-|
11
⑦③②⑥ |①-②③|
口⑤④① |④⑤⑥⑦|
口口⑩⑨ |⑧-⑨-|
口口口⑧ |⑩---|
12
口④②⑤ |①-②-|
③⑥⑩① |③-④-|
口⑦口⑩ |⑤--⑥⑦⑧|
口⑧⑨口 |⑨-⑩-|
13
口⑥⑥口 |①--②|
②口口① |--③-|
④⑤③口 |④-⑤-|
②口口① |⑥---|
14
口口口⑥ |①-②-|
口④③② |③-④-|
⑦口口⑤ |⑤-⑥-|
⑧①①口 |⑦-⑧-|
15
④⑥⑤口 |①-②-③-|
⑧⑩⑨⑦ |④-⑤-⑥-|
⑩⑧⑦⑨ |⑦-⑧-⑨-|
口②③① |⑩---|
16
口②③口 |①---|
口口口口 |----|
口口口口 |②---|
①口口① |③---|
17
口口口口 |①---|
口口③口 |--②-|
①④口① |③-④-|
②⑥⑤口 |⑤-⑥-|
18
口口③口 |①---|
①②口① |--②-|
口口④口 |③---|
口口口口 |④---|
19
①②口① |①---|
口③口口 |--②③|
口④口口 |④---|
口口口口 |----|
20
口口口口 |①---|
④⑤③② |--②-|
口口口口 |③---|
①口口① |④-⑤-|
21
口口③口 |①---|
口口口口 |--②-|
①口②① |③---|
口④⑤口 |④-⑤-|
22
②④③② |①---|
①口口① |--②-|
口口口口 |----|
口口口口 |③-④-|
23
⑧⑦⑥⑤ |①--②|
①口口③ |--③-|
口②④口 |④---|
③口口① |⑤⑥⑦⑧|
24
口口⑦⑦ |①-②-|
口⑥①⑤ |③-④-|
②口⑤⑧ |⑤-⑥-|
口④③① |⑦-⑧-|
25
①⑤口口 |①-②-|
⑦口④⑥ |③-④-|
③①⑧口 |⑤-⑥-|
③口④② |⑦-⑧-|
26
口口①① |①-②-|
口④⑦⑦ |③-④-|
④②口⑤ |⑤-⑥-|
⑥⑧⑤③ |⑦-⑧-|
27
②口①口 |①---|
③口口口 |--②③|
④口①⑦ |④---|
⑤⑥口口 |⑤⑥⑦-|
28
口口①① |①---|
⑧③②⑦ |②③④⑤|
⑩⑤④⑨ |⑥---|
口口⑥⑥ |⑦⑧⑨⑩|
29
⑦⑦①① |①---|
口③②⑧ |②③④⑤|
口⑤④⑧ |⑥---|
口口⑥⑥ |⑦-⑧-|
30
⑦⑦④② |①-②-|
口⑤④口 |③-④-|
③口口⑧ |⑤-⑥-|
①①⑥口 |⑦-⑧-|
31
口口口口 |①--②|
①口口③ |--③-|
口②④口 |④---|
③⑤⑤① |⑤---|
32
③③①② |①-②-|
③③⑤④ |--③-|
③口口口 |--④-|
⑥口口口 |⑤-⑥-|
33
⑤④③② |①-②-|
⑥口口⑦ |③-④-|
口①①① |⑤---|
口口①口 |⑥-⑦-|
34
口③③口 |①-②-|
口③口口 |--③-|
④⑤③口 |----|
①③③② |④-⑤-|
35
口口口⑤ |①---|
口口①④ |----|
口口口③ |②-③-|
口口口② |④-⑤-|
36
①①④口 |①--②|
口口⑤口 |--③-|
③③⑥口 |④-⑤-|
②②⑦口 |⑥-⑦-|
37
③④④③ |①--②|
①①口口 |--③-|
⑥口口⑤ |④---|
②②口口 |⑤-⑥-|
38
⑤口口⑥ |①--②|
口①①口 |--③-|
口②②口 |④---|
④③③④ |⑤-⑥-|
39
口口口口 |①---|
口①①② |--②③|
口口口③ |④---|
口口⑤④ |--⑤-|
40
口④口口 |①-②-|
③⑦口⑧ |③-④-|
⑥②口⑨ |⑤-⑥-|
①⑤口口 |⑦-⑧⑨|
41
⑤口④⑤ |①-②-|
口口③⑧ |③-④-|
口口②⑨ |⑤-⑥-|
⑦口⑥① |⑦-⑧⑨|
42
口④口口 |①-②-|
③⑦口⑧ |③-④-|
⑥②口⑨ |⑤-⑥-|
口⑤口① |⑦-⑧⑨|
43
口④⑦⑦ |①-②-|
③口口口 |③-④-|
⑥②口口 |⑤-⑥-|
口⑤口① |⑦---|
44
口口口口 |①---|
口①②② |----|
口口①① |②---|
①口②② |----|
45
②口口口 |①---|
口②口口 |----|
①①②口 |②---|
①①口② |----|
46
口③②① |①--②|
④口②① |--③-|
口⑤口① |--④-|
口口⑥口 |⑤-⑥-|
47
①口口① |①---|
口②②口 |----|
口③③口 |②--③|
口④④口 |--④-|
48
⑤口③② |①---|
①③口② |②---|
①④④② |③---|
①口口⑤ |④-⑤-|
49
口①④④ |--①-|
③⑥⑥④ |②-③-|
⑤⑥⑥口 |④-⑤-|
⑤⑤②口 |⑥---|
50
①④⑤口 |①--②|
口口口⑥ |③-④-|
口口⑦③ |⑤-⑥-|
口⑧②① |⑦-⑧-|
51
口口口口 |①-②-|
②④③口 |③-④-|
①④口口 |----|
④口口口 |----|
52
②③口⑤ |①---|
②口③① |②---|
②④④① |③---|
⑤口口① |④-⑤-|
53
④④①口 |--①-|
④⑥⑥③ |②-③-|
口⑥⑥⑤ |④-⑤-|
口②⑤⑤ |⑥---|
54
口⑤④① |①--②|
⑥口口口 |③-④-|
③⑦口口 |⑤-⑥-|
①②⑧口 |⑦-⑧-|
55
③④④① |①---|
口⑤⑤① |②---|
②⑥⑥口 |③-④-|
②口口③ |⑤-⑥-|
56
④口口③ |①--②|
⑦口口⑦ |--③-|
⑥口口⑥ |④-⑤-|
⑤②①⑤ |⑥-⑦-|
57
⑧③①口 |①-②-|
⑧③①口 |③-④-|
口④②⑦ |⑤-⑥-|
⑥⑤⑤⑦ |⑦-⑧-|
58
口③③① |①-②-|
口④⑥④ |③-④-|
②⑥②口 |⑤-⑥-|
⑦⑤⑤⑦ |⑦---|
59
①⑥⑦① |①--②|
⑤口口⑧ |③-④-|
④口③② |⑤-⑥-|
口口口口 |⑦-⑧-|
60
⑥口口⑤ |①-②-|
口④口口 |③-④-|
⑧③口⑦ |⑤-⑥-|
口②口① |⑦-⑧-|
61
⑥⑤⑤⑦ |①-②-|
口④②⑦ |③-④-|
⑧③①口 |⑤-⑥-|
⑧③①口 |⑦-⑧-|
62
⑦⑥⑥⑦ |①-②-|
②⑤②口 |③-④-|
口④⑤④ |⑤-⑥-|
口③③① |⑦---|
63
⑧⑦口口 |①--②|
口口④⑤ |③-④-|
①口口⑥ |⑤-⑥-|
①口③② |⑦-⑧-|
64
口口④④ |①--②|
①②③口 |--③-|
①②③口 |④---|
①②③口 |----|
65
口口口口 |①---|
口口口口 |----|
口口口② |②---|
口口口① |----|
66
①口口口 |①---|
②口口口 |----|
口口口口 |②---|
口口口口 |----|
67
口口口口 |①---|
口口口口 |----|
②口口口 |②---|
①口口口 |----|
68
口口①① |①---|
口口口② |----|
口③③口 |②---|
口口口口 |③---|
69
③口口⑥ |①--②|
②口口⑤ |--③-|
④口口① |④--⑤|
①①④④ |--⑥-|
70
口口①口 |①--②|
口③③口 |--③-|
口②⑤口 |④---|
⑥④④口 |⑤-⑥-|
71
④④①① |①--②|
①口口④ |--③-|
⑤口口② |④--⑤|
⑥口口③ |--⑥-|
72
口口口口 |①--②|
④②③口 |--③-|
口③口④ |④---|
⑥口①⑤ |⑤-⑥-|
73
⑤④①② |①--②|
⑤⑥⑥② |--③-|
口④①口 |④--⑤|
口③③口 |--⑥-|
74
口④④口 |①--②|
⑥口口⑤ |--③-|
②口口① |④---|
②③③① |⑤-⑥-|
75
⑤口口口 |①-②-|
口⑦④口 |③-④-|
⑥口②③ |⑤-⑥-|
口⑧口① |⑦-⑧-|
76
口④口口 |①-②-|
③口⑥⑤ |③-④-|
口②⑧⑦ |⑤-⑥-|
①口口口 |⑦-⑧-|
77
①口口① |①---|
口④⑤口 |②---|
口口口口 |③---|
③③②② |④-⑤-|
78
口④③口 |--①-|
⑤口口② |②-③-|
口⑥①口 |④-⑤-|
口口口口 |⑥---|
79
③口口② |①---|
口③②口 |②---|
口口口口 |③---|
①⑤④① |④-⑤-|
80
口②③口 |--①-|
①口口④ |②-③-|
口⑥⑤口 |④-⑤-|
口口口口 |⑥---|
81
①口口① |①---|
口④⑤口 |②---|
口口口口 |③---|
③③②② |④-⑤-|
82
口④③口 |--①-|
⑤口口② |②-③-|
口⑥①口 |④-⑤-|
口口口口 |⑥---|
83
口口口口 |①---|
口④③口 |②-③-|
⑤口口② |④-⑤-|
①⑦⑥① |⑥-⑦-|
84
④④③③ |①--②|
②⑨⑨① |--③-|
⑤⑥⑦⑧ |④--⑤⑥⑦|
②口口① |⑧-⑨-|
85
口口⑦⑥ |①-②-|
⑤⑧口② |③-④-|
口口口口 |⑤-⑥-|
口④③① |⑦-⑧-|
86
口⑤口口 |①-②-|
口口口口 |③-④-|
①②⑦④ |⑤-⑥-|
口⑥③口 |⑦---|
87
⑭⑧⑮⑤ |①②③④|
④⑩①⑪ |⑤⑥⑦⑧|
⑯⑥⑬⑨ |⑨⑩⑪⑫|
②⑫⑦③ |⑬⑭⑮⑯|
88
口⑧口⑤ |①②③④|
④口①口 |⑤⑥⑦⑧|
口⑥⑪⑨ |⑨--⑩|
②⑩⑦③ |--⑪-|
89
⑯⑩①⑤ |①②③④|
⑫④⑨⑬ |⑤⑥⑦⑧|
②⑥⑮⑪ |⑨⑩⑪⑫|
⑧⑭⑦③ |⑬⑭⑮⑯|
90
⑯⑩①⑤ |①②③④|
⑫④⑨⑬ |⑤⑥⑦⑧|
②⑥⑮⑪ |⑨⑩⑪⑫|
⑧⑭⑦③ |⑬⑭⑮⑯|
91
⑯⑩①⑤ |①②③④|
⑫④⑨⑬ |⑤⑥⑦⑧|
②⑥⑮⑪ |⑨⑩⑪⑫|
⑧⑭⑦③ |⑬⑭⑮⑯|
92
口口①② |①---|
④⑤⑥⑦ |②---|
口口口口 |③---|
③口口③ |④⑤⑥⑦|
93
④①①④ |①---|
口口口口 |②---|
口②②口 |③---|
⑤③③⑤ |④-⑤-|
94
口②④口 |--①-|
口⑤⑤口 |②-③-|
①⑥⑥③ |④-⑤-|
口⑦⑦口 |⑥-⑦-|
95
④⑤口④ |①---|
①⑤口② |②---|
③⑤口③ |③-④-|
①口口② |--⑤-|
96
口口①④ |--①-|
②口①④ |②---|
口口①④ |③---|
②③③④ |④---|

不確定度: 0

最終更新:2014年12月11日 23:12