Idola
iconoclasm feat.GUMI

EXTREME

Level: 10
BPM: 201
Notes: 903

1
口口口口 |----|
口口口口 |----|
口口口口 |----|
口口口口 |----|
2
口口口口 |----|
口①口口 |----|
口口口口 |----|
口口口口 |①---|
3
①口①口 |①---|
口③口口 |----|
①②①③ |----|
口口口② |②-③-|
4
口口口口 |----|
口②口口 |----|
①口②口 |①---|
口①口口 |②---|
5
口口①口 |①---|
②口③① |----②-|
口④④口 |③---|
口②口③ |--④-|
6
①口①口 |①---|
口②口② |②---|
④口⑤④ |③-④-|
③口口③ |--⑤-|
7
③①口口 |①---|
①③口② |--②-|
口④④口 |③---|
口口口② |--④-|
8
③①口口 |①---|
口③口口 |--②-|
①⑦⑥口 |③---|
⑤②②④ |④⑤⑥⑦|
9
口口⑥① |①---|
口口①⑥ |②③④⑤|
⑤⑩⑨④ |⑥---|
⑧③②⑦ |⑦⑧⑨⑩|
10
⑦⑦⑥① |①---|
⑦⑦①⑥ |②③④⑤|
⑤口口④ |⑥-⑦-|
口③②口 |----|
11
口口口① |①---|
口口口口 |----|
口②口口 |②---|
口口口口 |----|
12
②口口口 |①---|
口口口口 |----|
口口口口 |②---|
口口口① |----|
13
口口①口 |①---|
口口口口 |----|
口口口口 |②---|
②口口口 |----|
14
口口口口 |①---|
口①口口 |----|
口口口口 |②---|
口口口② |----|
15
口口口口 |①---|
口口口口 |②---|
③口口④ |③---|
口①②口 |④---|
16
口③④口 |①---|
①口口② |②---|
口口口口 |③---|
口口口口 |④---|
17
④⑤⑥⑦ |①-②-|
③口口⑧ |③-④-|
口②口口 |⑤-⑥-|
口口①口 |⑦-⑧-|
18
口口口口 |①②③-|
③⑥⑨⑫ |④⑤⑥-|
⑤②⑪⑧ |⑦⑧⑨-|
①④⑦⑩ |⑩⑪⑫-|
19
①①③② |①-②-|
⑧口口口 |③-④⑤|
⑦口⑩⑨ |⑥-⑦-|
④⑤⑥口 |⑧-⑨⑩|
20
⑧口口③ |①-②-|
⑦口口② |③-④⑤|
口①⑩⑨ |⑥-⑦-|
④⑤⑥口 |⑧-⑨⑩|
21
口口④③ |①-②-|
口⑤⑥② |③-④-|
⑦①⑧口 |⑤-⑥-|
口口口口 |⑦-⑧-|
22
①③⑤口 |①-②-|
②④⑥⑦ |③-④-|
⑧⑨口⑦ |⑤-⑥-|
①③⑤口 |⑦-⑧⑨|
23
③⑧口口 |①-②-|
②口口⑨ |③-④⑤|
⑧口①⑦ |⑥-⑦-|
口⑥⑤④ |⑧-⑨-|
24
③口⑧口 |①-②-|
⑦口①口 |③-④-|
⑦③②⑥ |⑤-⑥-|
口口④⑤ |⑦-⑧-|
25
口口口① |①-②-|
⑧③⑧② |③-④-|
⑦⑦⑥⑥ |⑤-⑥-|
⑤③口④ |⑦-⑧-|
26
①①①① |①---|
口口⑤② |②---|
口口口③ |③---|
口口口④ |④---⑤-|
27
①②③④ |①---|
口⑤口口 |②---|
①口口口 |③---|
口②口口 |④---⑤-|
28
④口口口 |①---|
③口口口 |②---|
②⑤口口 |③---|
①口①口 |④---⑤-|
29
口口口④ |①---|
口口口① |②---|
口口口口 |③---|
④③②① |④---|
30
口口口口 |①-②-|
③④①② |③-④-|
⑥①⑤口 |⑤---|
口口⑧⑦ |⑥-⑦⑧|
31
口⑤口④ |①-②-|
⑤口⑥③ |③-④-|
口口口② |⑤---|
口①口口 |--⑥-|
32
⑤口⑤③ |①-②-|
⑦②⑧口 |③-④-|
口④⑥③ |⑤-⑥-|
⑦①口① |⑦-⑧-|
33
口口口口 |①-②-|
⑧⑥⑦口 |③-④-|
②④⑤③ |⑤-⑥-|
口①口① |⑦-⑧-|
34
①①①① |①---|
口口口② |②---|
口⑤⑥③ |③---|
口口④④ |④-⑤-⑥-|
35
①②③④ |①---|
口①口口 |②---|
口⑥⑤口 |③---|
口④口口 |④-⑤-⑥-|
36
口口口口 |①---|
口口①口 |②-③-|
②口口③
①口口口

口口口口
④⑥⑦口
口口⑤口 |④---|
口口口口 |⑤-⑥-⑦-|
37
口①口② |①---|
口口口④ |②---|
口口⑥③ |③-④-|
⑤③②① |⑤-⑥-|
38
⑤①③② |①-②-|
口口④⑦ |③-④-|
①⑤口⑥ |⑤-⑥-|
口口⑨⑧ |⑦-⑧⑨|
39
口口③② |①-②-|
①⑤④⑥ |③-④-|
口口口⑦ |⑤-⑥-|
⑤①⑨⑧ |⑦-⑧⑨|
40
口口⑧② |①-②-|
①口⑦⑥ |③-④-|
③⑤④口 |⑤-⑥-|
口①口口 |⑦-⑧-|
41
①④口② |①---|
④口④口 |②---|
口④口口 |③---|
①③③② |④---|
42
①口①口 |①---|
口①口口 |----|
①口①口 |----|
口口口口 |----|
43
口口口口 |----|
口口口口 |----|
口口口口 |----|
口口口口 |----|
44
口口①口 |①---|
口口口口 |--②-|
口③口② |----|
口口口口 |③---|
45
口口③口 |--①-|
口口口② |----|
口口口② |②---|
①口③口 |③---|
46
④口口口 |①---|
③①⑤⑤ |②---|
②①④④ |③---|
①口口口 |④-⑤-|
47
⑤⑥口口 |①---|
③④口口 |②---|
②口⑤口 |③-④-|
①③③⑤ |⑤-⑥-|
48
⑤口③③ |①---|
④口④④ |②-③-|
②①⑥① |④---|
①口口⑤ |⑤-⑥-|
49
⑤口④④ |①---|
③①③③ |②---|
②口口② |③-④-|
①口口口 |⑤---|
50
④⑥⑤④ |①---|
③口口③ |②---|
口②①口 |③-④-|
②口口① |⑤-⑥-|
51
③口口③ |①---|
④⑥⑤④ |②---|
②口口① |③-④-|
口②①口 |⑤-⑥-|
52
口③③口 |①---|
口⑤⑤口 |②---|
②④④① |③---|
②②①① |④-⑤-|
53
①口口① |①-②-|
③口⑦② |③-④-|
⑤口⑥⑤ |⑤---|
口④④口 |⑥-⑦-|
54
①口①口 |①---|
②口⑤⑤ |②---|
③口④④ |③---|
④口口口 |④-⑤-|
55
①口③③ |①---|
②口⑤口 |②---|
③④口⑤ |③-④-|
⑤⑥口口 |⑤-⑥-|
56
①口口④ |①---|
②③口③ |②-③-|
④口①口 |④---|
⑤⑥口① |⑤-⑥-|
57
①②⑦⑧ |①-②-|
③④口⑤ |③-④-|
⑤⑥③口 |⑤-⑥-|
⑦口口① |⑦-⑧-|
58
①⑤口口 |①-②-|
⑤口口口 |③-④-|
⑧⑦⑥口 |⑤-⑥-|
口④③② |⑦-⑧-|
59
①⑤①⑤ |①-②-|
⑤①⑤口 |③-④-|
口⑧⑦⑥ |⑤-⑥-|
④③②口 |⑦-⑧-|
60
①口①口 |①---|
口①口① |②---|
⑥口口⑤ |③-④-|
②④③口 |⑤-⑥-|
61
①①①① |①---|
口①①口 |--②-|
⑤②②口 |③---|
④③③口 |④-⑤-|
62
④③②① |①---|
口口口口 |②---|
口⑤④口 |③---|
口口口口 |④-⑤-|
63
④③②① |①---|
口口口口 |②---|
口⑤④口 |③---|
①口口口 |④-⑤-|
64
⑤④②① |①---|
①口口③ |②---③-|
口口口口 |④---|
口口⑥⑤ |⑤-⑥-|
65
④③②① |①---|
口口②口 |②---|
④①口口 |③---|
口③口口 |④---|
66
口口口口 |①---|
②③口① |②---③-|
⑤口④口 |④---|
⑤口④① |⑤---|
67
口③口③ |①---|
②口②口 |②---|
口①⑥① |③---|
口⑤④口 |④-⑤-⑥-|
68
②口口口 |①---|
口③口④ |②---③-|
口①口口 |④---|
口⑤口④ |⑤---|
69
口口口口 |①---|
口口口口 |②---|
口②口②
①口①口

口④口④
③口③口
口口口口 |③---|
口口⑤口 |④---⑤-|
70
②口⑨口 |①-②-|
⑦口⑧⑤ |③④⑤-|
⑥口①④ |⑥-⑦-|
口口口③ |⑧-⑨---|
71
①②⑨口 |①-②-|
⑧⑩口⑤ |③-④-⑤-|
口口⑦⑪ |⑥-⑦-⑧-|
④⑥口③ |⑨-⑩-⑪-|
72
①口口② |①---|
口口②口 |②---|
①口口口
口口口口

口口口口
口口口口
⑤口口口 |③---|
④③③口 |④-⑤-|
73
②③①④ |①---|
①⑤口口 |②--③|
⑤口⑤口 |④---|
口⑤口② |⑤---|
74
口口口口 |①---|
①口①口 |----|
口①口口 |----|
①口①口 |----|
75
口口①口 |----|
口①口① |----|
口口①口 |----|
口口口口 |①---|
76
口①口① |①---|
口口①口 |----|
口①口① |----|
口口口口 |----|
77
口口口⑦ |①-②-③-|
⑥⑧⑤⑨ |④-⑤-⑥-|
④⑩①⑪ |⑦---|
口②口③ |⑧⑨⑩⑪|
78
⑦口②口 |①-②-|
⑤口④口 |③-④-|
③口⑥口 |⑤-⑥-|
①①⑨⑧ |⑦-⑧⑨|
79
⑧⑨⑨② |①-②③|
⑥⑤⑦③ |④-⑤-|
④口⑥⑥ |⑥-⑦-|
①①口口 |⑧-⑨-|
80
⑦口口② |①-②-|
⑤⑧口④ |③-④-|
③口⑦口 |⑤-⑥-|
①口口⑥ |⑦-⑧-|
81
⑦口①⑥ |①-②-|
⑤口③⑤ |③-④-|
③④口口 |⑤-⑥-|
①②⑨⑧ |⑦-⑧⑨|
82
口口③口 |①-②-|
口口②口 |③-④⑤|
④⑤口口
口①口口

口口口口
口⑦口口
口口⑥口 |⑥-⑦-|
口⑩⑨⑧ |⑧-⑨-⑩-|
83
口⑦口口 |①-②-|
口⑥②⑧ |③-④-|
③④⑤口 |⑤-⑥-|
①口口口 |⑦-⑧-|
84
③口③⑤ |①-②-|
①⑧②口 |③-④-|
口⑥④⑤ |⑤-⑥-|
①⑦口⑦ |⑦-⑧-|
85
口口口⑥ |①-②-|
①⑨⑩⑤ |③-④-|
③⑦⑧④ |⑤-⑥-|
①口②口 |⑦⑧⑨⑩|
86
①①⑧⑧ |①-②-|
③口口⑥ |③-④-|
⑤口口④ |⑤-⑥-|
⑦口口② |⑦-⑧-|
87
①②⑧⑧ |①-②-|
③④③口 |③-④-|
⑤⑥⑥③ |⑤-⑥-|
⑦口⑤⑤ |⑦-⑧-|
88
①②口口 |①-②-|
③④口口 |③-④-|
⑤⑨⑧⑥ |⑤-⑥-|
⑦口口口 |⑦-⑧-⑨-|
89
④口口③ |①-②-|
②④③① |③-④-|
⑤口口⑤ |⑤-⑥-|
⑥口⑦⑥ |--⑦-|
90
⑨⑪⑥口 |①②③④|
⑤⑦④⑩ |⑤-⑥-⑦-|
⑬③②⑧ |⑧-⑨-⑩-|
口①⑫口 |⑪-⑫-⑬-|
91
⑧口⑤① |①-②-③-|
④口⑩⑨ |④-⑤-⑥-|
口②③⑦ |⑦-⑧-|
口⑥口口 |--⑨⑩|
92
口口口⑥ |①-②-|
⑤①口口 |③-④-|
口⑦⑧④ |⑤-⑥-|
③⑨口② |⑦-⑧-⑨-|
93
②③④⑤ |①-②-|
⑥口⑦口 |③-④-|
口口口⑤ |⑤-⑥-|
⑥口①口 |---⑦|
94
①②③④ |①---|
口口口口 |②---|
①口口口 |③---|
口口口口 |④---|
95
①②③④ |①---|
口口⑤口 |②---|
口口口口 |③---|
口口口口 |④--⑤|
96
①②③④ |①---|
口口口口 |②---|
①口口口 |③---|
口口口口 |④---|
97
①⑥口口 |①---|
②口⑤口 |②---|
口④口口 |③-④-⑤-|
口口③口 |⑥---|
98
口口①口 |①---|
口①口① |----|
口口①口
口口口口

③②③口
②③②口
③②③口 |----|
口口口口 |②-③-|
99
口口口口 |----|
口口口口 |----|
口口口② |①---|
口口口① |②---|
100
口①口口 |①---|
①口①口 |----②-|
口①②口
口口口口

口口口口
口③④③
口口口口 |③---|
口③口③ |----④-|
101
口①①口 |①---|
②口口口 |②---|
②口口口
口口口口

口口⑤口
口口口④
口口口④ |③-④-|
口③③口 |--⑤-|
102
①⑤口② |①-②-|
口口③⑥ |③-④-|
⑤①④⑦ |⑤-⑥-|
口口⑨⑧ |⑦-⑧⑨|
103
口口③② |①-②-|
①⑤④⑦ |③-④-|
口⑧⑨⑥ |⑤-⑥-|
⑤①口口 |⑦-⑧⑨|
104
①口②⑥ |①-②-|
③⑤④口 |③-④⑤|
①⑩口⑥ |⑥-⑦-|
口⑦⑧⑨ |⑧-⑨⑩|
2
BPM: 203
105
②①①口 |①-②-|
④口③⑦ |③-④⑤|
⑤口⑦⑦ |⑥-⑦-|
⑥⑦⑦口 |----|
106
①①①口 |①---|
口①口口 |----|
口①口口 |----|
口口口口 |----|

不確定度: 0

最終更新:2014年12月11日 23:17