陽炎
星野奏子

EXTREME

Level: 8
BPM: 140
Notes: 565

1
口口口口 |----|
口口口口 |----|
口口口口 |----|
口口口口 |----|
2
①口口① |①-②-|
口②口口 |③-④-|
口③口口
口④口口

口口⑤口
口⑦⑥口
口口⑧口 |⑤-⑥-|
口口口口 |⑦-⑧-|
3
口口口口 |①-②-|
②④③① |③-④-|
口⑧⑦口 |⑤-⑥-|
口⑥⑤口 |⑦-⑧-|
4
口口口口 |①-②-|
③②④③ |③-④-|
⑤⑧⑥⑤ |⑤-⑥-|
①⑦⑦① |⑦-⑧-|
5
口②③口 |①-②-|
口①①⑧ |③-④-|
④口⑥⑦ |⑤-⑥-|
口口⑤口 |⑦-⑧-|
6
①口口① |①-②-|
口②口口 |③-④-|
口③口口
口④口口

口口⑤口
口⑦⑥口
口口⑧口 |⑤-⑥-|
口口口口 |⑦-⑧-|
7
口口口口 |①-②-|
口④⑦① |③-④-|
⑥③口⑤ |⑤-⑥-|
口②⑧口 |⑦-⑧-|
8
①口口① |①-②-|
口②口口 |③-④-|
口③口口
口④口口

口口口口
口口⑤⑤
口⑧⑥口 |⑤-⑥-|
口口⑦口 |⑦-⑧-|
9
②⑥⑥② |①--②|
口③④口 |--③④|
⑤⑨⑩⑤ |⑤-⑥-|
①⑦⑧① |⑦⑧⑨⑩|
10
口②③口 |①---|
①⑥⑦① |②---|
口④⑤口 |③---|
①口口① |④⑤⑥⑦|
11
①口口② |①---|
②口口① |②---|
③口口③ |③---|
④口口④ |④---|
12
②口口② |①---|
④①①④ |②---|
口③③口 |③---|
口①①口 |④---|
13
口口②口 |①---|
口①①口 |②---|
口口口口
①口口①

口口口③
④⑥⑤③
口口⑤口 |③-④-|
口口口口 |⑤-⑥-|
14
口口口口 |①---|
口口口口 |②---|
①③口① |③---|
②④④口 |④---|
15
①口口口 |①---|
②③④② |②---|
口口口① |③---|
口④③口 |④---|
16
口口口口 |①---|
①口口① |②---|
口①①口 |③---|
②③④口 |④---|
17
口口口口 |①--②|
口①②口 |----|
口口口口
口口口口

口口口口
口⑤⑤口
④口口④ |③--④|
口③③口 |--⑤-|
18
口①①口 |①---|
③⑦口⑥ |--②-|
口口④② |③-④-|
口⑤口口 |⑤-⑥⑦|
19
①口口口 |----|
口口口口 |①---|
口口口口
口口口口

④口④口
②口口口
③口口口 |②---|
口口口口 |③-④-|
20
口口口口 |①---|
⑦②⑥② |②-③④|
④①④① |--⑤-|
③⑤③口 |⑥-⑦-|
21
口口口口 |①-②③|
口口口口 |----|
口①③①
口口②口

口口口④
口口口口
口口口⑤ |④---|
口口口口 |⑤---|
22
口①①口 |①---|
口口口口 |--②-|
口②口口
口口口口

口口⑦⑦
⑥⑥口③
口口⑤口 |③-④-|
口④口口 |⑤-⑥⑦|
23
①口口口 |----|
口口②口 |①---|
③口口口 |②---|
口③口口 |③---|
24
口口口口 |①---|
口②口③ |②--③|
口口②①
③口口①

口④口④
⑤口⑤口
口⑥口⑥ |--④-|
口⑦口⑦ |⑤-⑥⑦|
25
口口口口 |----|
口②②口 |①---|
口口③口 |②---|
①口口口 |③---|
26
①②③口 |①-②-|
①④④口 |③-④-|
口口口①
口③②①

⑥⑥口口
口口口口
⑤口口⑤ |--⑤-|
口口⑥⑥ |--⑥-|
27
口口口口 |----|
口口①口 |①---|
口②口口 |②---|
口口③口 |③---|
28
③口②① |①-②-|
口④④① |③-④-|
①口口口
①②口③

口⑥⑥口
口口口口
⑤口口⑤ |--⑤-|
口口口口 |--⑥-|
29
口口口口 |----|
口口①口 |①---|
口②③口 |②---|
口④③口 |③-④-|
30
口口口口 |①---|
①口口口 |--②-|
口口口口
①口口②

口口口口
③口口口
③④④口 |--③-|
口口⑤口 |④-⑤-|
31
口口口口 |①---|
口③②① |--②-|
口口口口 |----|
④口口① |③-④-|
32
口口口口 |①---|
口③口口 |②-③-|
口②③口
口口②①

⑤⑤口④
口口口口
④口口口 |--④-|
口口⑤⑤ |--⑤-|
33
口口口口 |①---|
口口①口 |②---|
口②口口 |③---|
④口③④ |④---|
34
口口口口 |①---|
①①①① |----|
口②②口 |②---|
口②②口 |----|
35
②口口② |①--②|
⑤口⑥⑤ |--③④|
⑨⑧④⑨ |⑤-⑥-|
①⑦③① |⑦-⑧⑨|
36
②口①口 |--①-|
口口口③ |②-③-|
口口②口
口口口口

口⑥⑧④
⑥口⑦口
口④口⑤ |④-⑤-|
口口⑥口 |⑥-⑦⑧|
37
⑥口⑧口 |①---|
口①⑤④ |②-③-|
①②⑦口 |④-⑤-|
②④⑥③ |⑥-⑦⑧|
38
口口口口 |①-②-|
口①④口 |③-④-|
口口口②
③口口③

口⑤口⑦
⑤⑧口⑥
⑧口口口 |⑤-⑥⑦|
口口口口 |⑧---|
39
⑤口口⑤ |①---|
口口口口 |②-③-|
⑥①④⑥ |④---|
①②口③ |⑤-⑥-|
40
口口④口 |--①-|
②②①① |②-③-|
⑥③口⑥ |④-⑤-|
⑦⑤③⑦ |⑥-⑦-|
41
①②③口 |--①②|
口④⑤⑥ |③④⑤⑥|
口口口口
口口口口

⑨口口口
口口口口
⑧口⑨⑧ |⑦---|
口⑦⑦口 |⑧-⑨-|
42
口口口① |--①②|
②③④⑤ |③④⑤-|
口①口口
口口口口

口⑥⑦口
口⑧口口
口口口口 |⑥---|
⑦口口⑥ |⑦-⑧-|
43
②口口① |①---|
口口口口 |②---|
①①②②
口口口口

口口口口
③口④③
⑦口口⑦ |③-④-|
口⑤⑥口 |⑤-⑥⑦|
44
②口①口 |--①-|
口口口③ |②-③-|
口口②口
口口口口

口⑥⑧④
⑥口⑦口
口④口⑤ |④-⑤-|
口口⑥口 |⑥-⑦⑧|
45
⑤口口⑥ |①---|
口①口④ |②-③-|
①②口⑤ |④---|
②④口③ |⑤-⑥-|
46
口口口口 |①-②-|
口①④④ |③-④-|
口口口口
③口②口

口⑤口口
⑤⑥口口
⑥口口口 |⑤---|
口口口口 |⑥---|
47
③③④④ |①-②-|
口口口口 |③-④-|
口①口口
①②口②

口口口口
口口口口
⑤口口⑤ |⑤---|
口⑥口口 |⑥---|
48
⑥⑤⑥⑤ |①-②-|
⑥④⑥口 |③-④-|
口②③口 |⑤---|
口口①口 |⑥---|
49
口口口口 |①---|
口①口① |②---|
口①口①
②口②口

③口④口
⑤口⑥口
⑦口⑧口 |③④⑤⑥|
⑨口⑩口 |⑦⑧⑨⑩|
50
口①口② |①②③④|
口③口④ |⑤⑥⑦⑧|
口⑤口⑥
口⑦口⑧

⑬⑮⑭⑯
⑪口⑫口
⑨口⑩口 |⑨⑩⑪⑫|
口口口口 |⑬⑭⑮⑯|
51
口⑧口口 |①--②|
⑤③④⑥ |③④⑤⑥|
口①②口 |⑦---|
⑦①②⑦ |⑧---|
52
⑥口①⑦ |①---|
⑦④⑤⑥ |②③④⑤|
口②③口 |⑥---|
口口口口 |⑦---|
53
④口口④ |①---|
口③③口 |②---|
①口口① |③---|
②③③② |④---|
54
口口④口 |①---|
②口口② |②---|
③①①③ |③---|
③口口③ |④---|
55
口口口① |①-②-|
②④③① |③-④-|
⑤口③⑤ |⑤---|
口口口⑥ |⑥---|
56
口口口口 |①---|
口②②口 |②---|
口①口口
口②②口

③口口口
④口⑤口
口口③③ |③---|
口口口口 |④-⑤-|
57
口口口口 |①---|
口①口口 |②---|
②口口②
口①口口

口③④口
口⑤⑥口
口⑦⑧口 |③④⑤⑥|
口⑨⑩口 |⑦⑧⑨⑩|
58
①⑨⑩② |①②③④|
③⑪⑫④ |⑤⑥⑦⑧|
⑤⑬⑭⑥ |⑨⑩⑪⑫|
⑦⑮⑯⑧ |⑬⑭⑮⑯|
59
口⑦⑦口 |①②③④|
⑤口口⑥ |⑤⑥⑦-|
③口口④ |----|
①口口② |----|


不确定度: 0

最終更新:2012年11月08日 18:22