Follow Tomorrow
HHH×MM×ST

BASIC

Level: 4
BPM: 140
Notes: 328

1
口口口口 |----|
口口口口 |----|
口口口口 |----|
口口口口 |----|
2
口口口口 |①---|
口②②口 |----|
口①①口 |②---|
口口口口 |----|
3
口口口口 |①---|
②口口② |----|
①口口① |②---|
口口口口 |----|
4
口②②口 |①---|
口口口口 |----|
口口口口 |②---|
口①①口 |----|
5
②口口② |①---|
口口口口 |----|
口口口口 |②---|
①口口① |----|
6
口口口口 |①---|
口①②口 |②---|
口③④口 |③---|
口口口口 |④---|
7
口口口口 |①---|
①口口② |②---|
③口口④ |③---|
口口口口 |④---|
8
口①②口 |①---|
口口口口 |②---|
口口口口 |③---|
口③④口 |④---|
9
口口口口 |①---|
①③③① |②---|
②③③② |③---|
口口口口 |----|
10
口口口口 |----|
口口口口 |----|
口口口口 |----|
口口口口 |----|
11
④④口口 |①---|
③口口口 |②---|
②口口口 |③---|
①口口口 |④---|
12
口口④④ |①---|
口口口③ |②---|
口口口② |③---|
口口口① |④---|
13
口口④口 |①---|
口③口口 |②---|
口口②口 |③---|
口①口口 |④---|
14
①口口① |①---|
②④④② |②---|
③④④③ |③---|
口口口口 |④---|
15
④④口口 |①---|
③口口口 |②---|
②口口口 |③---|
①口口口 |④---|
16
口口④④ |①---|
口口口③ |②---|
口口口② |③---|
口口口① |④---|
17
口口④口 |①---|
口③口口 |②---|
口口②口 |③---|
口①口口 |④---|
18
口口口口 |①---|
口②②口 |----|
①②②① |②---|
口口口口 |----|
19
口口口口 |①---|
②②④④ |②---|
口口口口 |③---|
口①③口 |④---|
20
③口口③ |①---|
口口口口 |②---|
④②②④ |③---|
①口口① |④---|
21
口口口口 |①---|
②②④④ |②---|
口口口口 |③---|
口①③口 |④---|
22
口③④口 |①---|
口口口口 |②---|
口①②口 |③---|
口口口口 |④---|
23
口口口口 |①---|
②②④④ |②---|
口口口口 |③---|
口①③口 |④---|
24
③口口③ |①---|
口口口口 |②---|
④②②④ |③---|
①口口① |④---|
25
口口口口 |①---|
②②④④ |②---|
口口口口 |③---|
口①③口 |④---|
26
③口口③ |①---|
口口口口 |----|
①②②① |②---|
口口口口 |③---|
27
口口口口 |①---|
口①②口 |②---|
口口口口 |③---|
口③④口 |④---|
28
口口②② |①---|
口口口口 |----|
口①口口 |②---|
口口口口 |----|
29
口口口口 |①---|
口②①口 |②---|
口口口口 |③---|
口④③口 |④---|
30
②②口口 |①---|
口口口口 |----|
③③①口 |②---|
口口口口 |③---|
31
口口口口 |①---|
①口口② |②---|
口口口口 |③---|
③口口④ |④---|
32
口口②口 |①---|
口口②口 |----|
①口口口 |②---|
口口口口 |----|
33
口口口口 |①---|
②口口① |②---|
口口口口 |③---|
④口口③ |④---|
34
口④④口 |①---|
口③③口 |②---|
口②②口 |③---|
口①①口 |④---|
35
①口口② |①---|
①口口② |----|
口口口口 |②---|
口口口口 |----|
36
口口口口 |①---|
口①①口 |----|
口②②口 |②---|
口口口口 |----|
37
口口口口 |①---|
口口口口 |----|
②口口② |②---|
①口口① |----|
38
口口口口 |①---|
①口口① |----|
口口口口 |----|
口口口口 |----|
39
口口口口 |①---|
口③③口 |②---|
口②②口 |③---|
口①①口 |----|
40
④④口口 |①---|
③口口口 |②---|
②口口口 |③---|
①口口口 |④---|
41
口口④④ |①---|
口口口③ |②---|
口口口② |③---|
口口口① |④---|
42
口口④口 |①---|
口③口口 |②---|
口口②口 |③---|
口①口口 |④---|
43
①口口① |①---|
②④④② |②---|
③④④③ |③---|
口口口口 |④---|
44
④④口口 |①---|
③口口口 |②---|
②口口口 |③---|
①口口口 |④---|
45
口口④④ |①---|
口口口③ |②---|
口口口② |③---|
口口口① |④---|
46
口口④口 |①---|
口③口口 |②---|
口口②口 |③---|
口①口口 |④---|
47
口口口口 |①---|
口②②口 |----|
①②②① |②---|
口口口口 |----|
48
口口口口 |①---|
①②口口 |----|
口口口口 |②---|
口口口口 |----|
49
口口②② |①---|
口口①口 |----|
口口口口 |②---|
口口口口 |----|
50
口口口口 |①---|
口口口口 |----|
口口②① |②---|
口口口口 |----|
51
口口口口 |①---|
口口口口 |----|
口①口口
口口口口

②②口口
口口口口
③③口口 |②---|
口口口口 |③---|
52
口口口口 |①---|
①口口② |②---|
口口口口 |③---|
③口口④ |④---|
53
口口②口 |①---|
口口②口 |----|
①口口口 |②---|
口口口口 |----|
54
口口口口 |①---|
②口口① |②---|
口口口口 |③---|
④口口③ |④---|
55
口④④口 |①---|
口③③口 |②---|
口②②口 |③---|
口①①口 |④---|
56
①口口① |①---|
口③③口 |--②-|
②口口② |----|
口口口口 |③---|
57
口口口口 |①---|
口口口口 |----|
口①①口 |----|
口口口口 |----|
58
口口口口 |----|
口口口口 |----|
口口口口
口口口口
59
④④口口 |①---|
③口口口 |②---|
②口口口 |③---|
①口口口 |④---|
60
口口④④ |①---|
口口口③ |②---|
口口口② |③---|
口口口① |④---|
61
口口④口 |①---|
口③口口 |②---|
口口②口 |③---|
口①口口 |④---|
62
①口口① |①---|
②④④② |②---|
③④④③ |③---|
口口口口 |④---|
63
④④口口 |①---|
③口口口 |②---|
②口口口 |③---|
①口口口 |④---|
64
口口④④ |①---|
口口口③ |②---|
口口口② |③---|
口口口① |④---|
65
口口④口 |①---|
口③口口 |②---|
口口②口 |③---|
口①口口 |④---|
66
口口口口 |①---|
口②②口 |----|
①②②① |②---|
口口口口 |----|
67
口口口口 |①---|
②②口口 |----|
口口口口 |②---|
①①口口 |----|
68
口口口口 |①---|
口口②② |----|
口口口口 |②---|
口口①① |----|
69
口口口口 |①---|
②②口口 |----|
口口口口 |②---|
①①口口 |----|
70
口口②② |①---|
口口口口 |----|
口口①① |②---|
口口口口 |----|

不確定度: 0

最終更新:2014年06月20日 02:48