Follow Tomorrow
HHH×MM×ST

ADVANCED

Level: 7
BPM: 140
Notes: 590

1
口口口口 |----|
口口口口 |----|
口口口口 |----|
口口口口 |----|
2
口口②口 |①--②|
口口口口 |--③-|
①口⑤口 |④--⑤|
④口口③ |----|
3
④口口口 |①--②|
口口②口 |--③-|
①⑤口口 |④--⑤|
口口口③ |----|
4
口口②口 |①--②|
口口口⑥ |--③-|
①⑤口口 |④--⑤|
④口口③ |--⑥-|
5
③口口③ |①--②|
口②②口 |--③-|
口口口口 |④---|
④①①④ |----|
6
口口②口 |①--②|
口口口口 |--③-|
①口⑤口 |④--⑤|
④口口③ |----|
7
④口口口 |①--②|
口口②口 |--③-|
①⑤口口 |④--⑤|
口口口③ |----|
8
口口口口 |①--②|
口②口⑥ |--③-|
①⑤口口 |④--⑤|
④口口③ |--⑥-|
9
③口口③ |①--②|
口②②口 |--③-|
④口口④ |④---|
口①①口 |----|
10
口口口口 |①---|
②①①③ |----|
②①①③ |②---|
口口口口 |③---|
11
⑤⑤②② |①--②|
口③口口 |--③-|
口口④④ |④--⑤|
①口口口 |----|
12
口口⑤⑤ |①--②|
口①③口 |--③-|
④④口口 |④--⑤|
口口②② |----|
13
口口口口 |①--②|
口口②② |--③-|
口③口口
①口口口

⑤⑤口口
口口⑥⑥
口口口口 |④--⑤|
口口④④ |--⑥-|
14
⑤③③② |①--②|
口①⑤口 |--③-|
口⑤①口 |④---|
②④④⑤ |⑤---|
15
⑤⑤②② |①--②|
口③口口 |--③-|
口口④④ |④--⑤|
①口口口 |----|
16
口口⑤⑤ |①--②|
口①③口 |--③-|
④④口口 |④--⑤|
口口②② |----|
17
口口口口 |①--②|
口口②② |--③-|
口③口口
①口口口

⑤⑤口口
口口⑥⑥
口口口口 |④--⑤|
口口④④ |--⑥-|
18
口③③② |①--②|
④①口④ |--③-|
口口①口 |④---|
②口口口 |----|
19
口口口口 |①②③④|
口口口口 |----|
⑤⑥⑦⑧ |⑤⑥⑦⑧|
①②③④ |----|
20
口口口口 |①②③④|
①②③④ |----|
口口口口
口口口口

口口⑤⑤
⑧口口⑧
口⑥⑦口 |⑤-⑥⑦|
口口口口 |--⑧-|
21
口口口口 |①②③④|
口口口口 |----|
⑤⑥⑦⑧ |⑤⑥⑦⑧|
①②③④ |----|
22
口⑥⑤口 |①②③④|
①②③④ |----|
口口⑦⑦ |⑤⑥-⑦|
口口口口 |----|
23
口口口口 |①②③④|
口口口口 |----|
⑤⑥⑦⑧ |⑤⑥⑦⑧|
①②③④ |----|
24
口口口口 |①②③④|
①②③④ |----|
口口口口
口口口口

口口⑤⑤
⑧口口⑧
口⑥⑦口 |⑤-⑥⑦|
口口口口 |--⑧-|
25
口口口口 |①②③④|
口口口口 |----|
⑤⑥⑦⑧ |⑤⑥⑦⑧|
①②③④ |----|
26
⑦③②⑥ |①--②|
⑤②③④ |--③-|
④口口⑤ |④-⑤-|
⑥①①⑦ |⑥-⑦-|
27
口口口⑦ |--①-|
⑥口①口 |②-③-|
口②⑤口 |④-⑤-|
④口③口 |⑥-⑦-|
28
⑤①口④ |①---|
口③②口 |--②-|
口②③口 |③--④|
④口口⑤ |--⑤-|
29
⑦口口口 |--①-|
口①口⑥ |②-③-|
⑤口②口 |④-⑤-|
口③口④ |⑥-⑦-|
30
④口①⑤ |①---|
口②③口 |--②-|
口③②口 |③--④|
⑤口口④ |--⑤-|
31
口口口⑦ |--①-|
⑥口①口 |②-③-|
口②口⑤ |④-⑤-|
④口③口 |⑥-⑦-|
32
⑤①口④ |①---|
口③②口 |--②-|
口②③口 |③--④|
④口口⑤ |--⑤-|
33
⑦口口⑦ |--①-|
⑥①①⑥ |②-③-|
⑤②②⑤ |④-⑤-|
④③③④ |⑥-⑦-|
34
⑤④④⑤ |①-②-|
⑦②②⑦ |③-④-|
⑥③③⑥ |⑤-⑥-|
⑧①①⑧ |⑦-⑧-|
35
③口口口 |①--②|
口②口⑤ |--③-|
⑥④口口 |④---|
口①口口 |⑤-⑥-|
36
口④口⑤ |①-②-|
口⑥③口 |③-④-|
口②⑦口 |⑤-⑥⑦|
⑧⑨①口 |--⑧⑨|
37
口口④口 |①---|
③口②④ |②---|
④②口③ |③---|
口④①口 |④---|
38
①口口口 |①---|
口①口口 |----|
口口①口 |----|
②②口① |--②-|
39
④口口④ |①-②③|
口②③口 |--④-|
⑤②③⑤ |⑤---|
口口①① |----|
40
⑤⑤②② |①--②|
口③口口 |--③-|
口口④④ |④--⑤|
①口口口 |----|
41
口口⑤⑤ |①--②|
口①③口 |--③-|
④④口口 |④--⑤|
口口②② |----|
42
口口口口 |①--②|
口口②② |--③-|
口③口口
①口口口

⑤⑤口口
口口⑥⑥
口口口口 |④--⑤|
口口④④ |--⑥-|
43
⑤③③② |①--②|
口①⑤口 |--③-|
口⑤①口 |④---|
②④④⑤ |⑤---|
44
⑤⑤②② |①--②|
口③口口 |--③-|
口口④④ |④--⑤|
①口口口 |----|
45
口口⑤⑤ |①--②|
口①③口 |--③-|
④④口口 |④--⑤|
口口②② |----|
46
口口口口 |①--②|
口口②② |--③-|
口③口口
①口口口

⑤⑤口口
口口⑥⑥
口口口口 |④--⑤|
口口④④ |--⑥-|
47
口③③② |①--②|
④①口④ |--③-|
口口①口 |④---|
②口口口 |----|
48
口口口⑦ |--①-|
⑥口①口 |②-③-|
口②⑤口 |④-⑤-|
④口③口 |⑥-⑦-|
49
⑤①口④ |①---|
口③②口 |--②-|
口②③口 |③--④|
④口口⑤ |--⑤-|
50
⑦口口口 |--①-|
口①口⑥ |②-③-|
⑤口②口 |④-⑤-|
口③口④ |⑥-⑦-|
51
④口①⑤ |①---|
口②③口 |--②-|
口③②口 |③--④|
⑤口口④ |--⑤-|
52
口口口⑦ |--①-|
⑥口①口 |②-③-|
口②口⑤ |④-⑤-|
④口③口 |⑥-⑦-|
53
⑤①口④ |①---|
口③②口 |--②-|
口②③口 |③--④|
④口口⑤ |--⑤-|
54
⑦口口⑦ |--①-|
⑥①①⑥ |②-③-|
⑤②②⑤ |④-⑤-|
④③③④ |⑥-⑦-|
55
⑤④④⑤ |①-②-|
⑦②②⑦ |③-④-|
⑥③③⑥ |⑤-⑥-|
⑧①①⑧ |⑦-⑧-|
56
⑥①②⑤ |①--②|
③⑥⑤④ |--③-|
④⑤⑥③ |-④--|
⑤②①⑥ |⑤-⑥-|
57
口①口口 |①---|
①口口口 |----|
口口口① |----|
口口①口 |----|
58
口口口口 |----|
口口口口 |----|
口口口口
口口口口
59
⑤⑤②② |①--②|
口③口口 |--③-|
口口④④ |④--⑤|
①口口口 |----|
60
口口⑤⑤ |①--②|
口①③口 |--③-|
④④口口 |④--⑤|
口口②② |----|
61
口口口口 |①--②|
口口②② |--③-|
口③口口
①口口口

⑤⑤口口
口口⑥⑥
口口口口 |④--⑤|
口口④④ |--⑥-|
62
⑤③③② |①--②|
口①⑤口 |--③-|
口⑤①口 |④---|
②④④⑤ |⑤---|
63
⑤⑤②② |①--②|
口③口口 |--③-|
口口④④ |④--⑤|
①口口口 |----|
64
口口⑤⑤ |①--②|
口①③口 |--③-|
④④口口 |④--⑤|
口口②② |----|
65
口口口口 |①--②|
口口②② |--③-|
口③口口
①口口口

⑤⑤口口
口口⑥⑥
口口口口 |④--⑤|
口口④④ |--⑥-|
66
口③③② |①--②|
④①口④ |--③-|
口口①口 |④---|
②口口口 |----|
67
①①口口 |①--②|
②②口口 |--③-|
③口口口 |④---|
口④口口 |----|
68
口口①① |①--②|
口口②② |--③-|
口口口③
口口口口

口口⑤口
口口口口
口口⑥口 |④--⑤|
口口④口 |--⑥-|
69
①①口口 |①--②|
②②口口 |--③-|
③口口口 |④---|
口④口口 |----|
70
口⑥①① |①--②|
口口②② |--③-|
口口⑤③ |④--⑤|
口口④口 |--⑥-|

不確定度: 0

最終更新:2014年06月20日 02:47