川崎純情音頭
川崎純情小町☆

EXTREME

Level: 9
BPM: 132
Notes: 532

1
口口口口 |----|
口口口口 |----|
口口口口 |----|
口口口口 |----|
2
①口①口 |①---|
口①口口 |----|
①口①口 |----|
口口口口 |----|
3
口①口① |①---|
口口①口 |----|
口①口① |----|
口口口口 |----|
4
口口口口 |①---|
①口①口 |----|
口①口口 |----|
①口①口 |----|
5
①④①④ |①-②-|
③口口② |③-④-|
①口口④
③②③②

⑧口⑥口
口⑥⑤⑦
⑥⑤⑦口 |⑤-⑥-|
口⑦口⑧ |⑦-⑧-|
6
口⑤⑥① |①-②-|
口⑦④口 |③-④-|
口③⑧① |⑤-⑥-|
②口口⑨ |⑦⑧⑨-|
7
①④口口 |①-②-|
口口③口 |③-④-|
①口口②
口口口口

⑧口口口
口口口⑦
口口⑥口 |⑤-⑥-|
口⑤口口 |⑦-⑧-|
8
口⑤⑥① |①-②-|
口⑦④口 |③-④-|
口③⑧① |⑤-⑥-|
②口口⑨ |⑦⑧⑨-|
9
口③③口 |①-②-|
①口口① |③-④-|
④口口④
口②②口

⑦口口⑦
口⑤⑤口
口口口口 |⑤-⑥-|
⑥⑧⑧⑥ |⑦-⑧-|
10
口口③口 |①-②-|
②口口③ |③-④-|
①①①①
④口口口

口口口⑦
口⑥⑦口
口口⑧口 |⑤-⑥-|
口⑨口⑤ |⑦⑧⑨-|
11
②⑧口⑤ |①-②-|
⑧④口① |③-④-|
口口⑦③ |⑤-⑥-|
⑥口③⑦ |⑦-⑧-|
12
口口③口 |①-②-|
口口口③ |③-④-|
④口口①
口②口口

口口口⑦
口⑥⑦口
口口⑧口 |⑤-⑥-|
口⑨口⑤ |⑦⑧⑨-|
13
口口口口 |①-②-|
②口口① |③-④-|
口④口③
口口③口

口⑧口口
⑧口⑤口
⑥口⑦口 |⑤-⑥-|
口⑥口⑦ |⑦-⑧-|
14
①⑨口① |①-②-|
口④⑧⑤ |③-④-|
⑥口⑦③ |⑤-⑥-|
②口③⑦ |⑦⑧⑨-|
15
②⑧③⑦ |①-②-|
⑧口⑦③ |③-④-|
⑥④口① |⑤-⑥-|
口⑥口⑤ |⑦-⑧-|
16
口口口口 |①-②-|
口④口口 |③-④-|
口口①③
②口③口

口口口⑦
口口⑦⑤
⑥口⑧口 |⑤-⑥-|
口⑨口口 |⑦⑧⑨-|
17
①③口④ |①-②-|
口口口② |③-④-|
④口口口
②口③①

口口⑥口
⑤⑦口⑧
口口⑨⑤ |⑤-⑥⑦|
口⑩口口 |⑧⑨⑩-|
18
①①口口 |①-②-|
口口②口 |③---|
口口口口
③口口口

口口口口
④⑤⑥口
④⑤⑥口 |④-⑤-|
口口口口 |⑥---|
19
口口口口 |①-②-|
口口口口 |③-④-|
②③⑦⑥ |⑤-⑥-|
①④⑧⑤ |⑦-⑧-|
20
③口口④ |--①-|
口⑤②口 |②-③-|
①口口⑥ |④-⑤-|
口⑦口口 |⑥-⑦-|
21
口②③口 |①-②-|
①口口④ |③-④-|
口口口口
口口口口

口⑦口口
⑦口口口
口口⑧⑥ |⑤-⑥-|
口⑤⑥⑧ |⑦-⑧-|
22
口口口① |--①-|
口②口⑤ |--②-|
口口③口 |③-④-|
④口口口 |⑤---|
23
①②③口 |--①-|
口口口口 |②-③-|
口口口口 |④-⑤-|
⑦⑥⑤④ |⑥-⑦-|
24
④口口① |--①-|
口⑤②口 |②-③-|
口③⑥口 |④-⑤-|
口口口⑦ |⑥-⑦-|
25
口②口④ |①-②-|
①口③口 |③-④-|
⑤口⑦口 |⑤-⑥-|
口⑥口口 |⑦---|
26
口③②口 |①---|
③口口② |②---|
④口口① |③---|
口④①口 |④---|
27
③②②② |①---|
③②①① |②---|
③③④① |③---|
④④④① |④---|
28
口口①口 |①---|
口③②① |②---|
④②③口 |③---|
口④口口 |④---|
29
①⑨口⑧ |①②③④|
口⑦⑩② |⑤⑥⑦⑧|
⑪③⑥口 |⑨⑩⑪⑫|
⑤⑬⑫④ |⑬---|
30
①口口④ |①---|
口①④口 |②---|
口②③口 |③---|
②口口③ |④---|
31
①④④④ |①---|
①④③③ |②---|
①①②③ |③---|
②②②③ |④---|
32
口③③口 |--①-|
①口口① |②---|
口口口口 |③-④-|
④②②④ |----|
33
⑧⑦⑦⑥ |①-②-|
④⑤⑤口 |③-④-|
口③③② |⑤-⑥-|
口①①口 |⑦-⑧-|
34
口口⑤④ |①-②-|
③⑥④⑤ |③---|
⑥③②① |④-⑤-|
口口①② |⑥---|
35
①⑧⑤口 |①-②-|
⑧⑦口⑤ |③-④-|
④③⑦⑥ |⑤-⑥-|
③④⑥② |⑦-⑧-|
36
①口口口 |--①-|
口②口① |--②-|
①口②口
口口口①

⑥⑥④⑤
④口③⑤
⑤③口④ |③-④-|
⑤④⑥⑥ |⑤-⑥-|
37
口口④口 |①-②-|
③①②口 |③-④-|
口②①③
口④口口

⑤⑧口⑥
⑧⑦⑦⑥
口口口口 |⑤-⑥-|
口口口⑤ |⑦-⑧-|
38
④⑤口口 |①-②-|
⑤④⑥③ |③---|
①②③⑥ |④-⑤-|
②①口口 |⑥---|
39
口⑤⑧① |①-②-|
⑤口⑦⑧ |③-④-|
⑥⑦③④ |⑤-⑥-|
②⑥④③ |⑦-⑧-|
40
④⑥⑤⑦ |--①-|
④⑥⑤⑦ |②-③-|
②③③② |④-⑤-|
①②②① |⑥-⑦-|
41
口④口口 |①-②-|
③④③口 |③-④-|
②②②口
口①口口

口口口口
口口口口
口⑦口⑤ |⑤---|
口口⑥⑤ |⑥-⑦-|
42
④口口① |①---|
③口③口 |②---|
②口④口 |③---|
①口口口 |④---|
43
口①②③ |①---|
口①口④ |②---|
口口④口 |③---|
口③口口 |④---|
44
④口口口 |①---|
③口口口 |②---|
②口口① |③---|
①④③② |④---|
45
口口口① |①---|
口口②口 |②---|
②口口口
①口口口

④口口口
③口口口
口③口口 |③---|
④口口口 |④---|
46
口口①① |①---|
口口①口 |②---|
②②口口
口②口口

④④⑤⑤
口④⑤口
口口③③ |③-④-|
口口③口 |⑤---|
47
口口口⑤ |①-②-|
①口口① |③---|
④③③④ |④---|
②④④② |⑤---|
48
①①口口 |①---|
口①口口 |②---|
口口②②
口口②口

⑤⑤④④
口⑤④口
③③口口 |③-④-|
口③口口 |⑤---|
49
口口口口 |①-②-|
①口口① |③---|
口③③口
②口口②

口⑤口口
⑤④④口
⑤口口口 |④---|
⑤④④口 |⑤---|

不確定度: 0

最終更新:2014年12月11日 23:58