ドリームキャッチャー
アイくるガールズ

EXTREME

Level: 8
BPM: 208
Notes: 592

1
口口口口 |----|
口口口口 |----|
口口口口 |----|
口口口口 |----|
2
口①④口 |①-②-|
口⑤②口 |③---|
口③口口 |----|
口口口口 |④-⑤-|
3
口口口口 |①---|
口口口口 |----|
口口①口 |----|
口口口口 |----|
4
口口①① |①---|
口③②口 |----|
口口口口 |----|
口口口口 |②-③-|
5
口口口口 |----|
③口口口 |①---|
②口口口 |②---|
①口口口 |③---|
6
口④⑤口 |①---|
口③口口 |②---|
口②口口 |③---|
口①口口 |④-⑤-|
7
口口口口 |----|
口口口口 |----|
②口口① |----|
口②①口 |①-②-|
8
口口口口 |----|
①口口② |----|
口①②口 |----|
口口口口 |①-②-|
9
③口口口 |----|
口①②口 |①---|
口③口口 |②---|
①口口② |③---|
10
口②③① |①---|
口口口口 |----|
口口①口 |----|
口口口口 |②-③-|
11
口口口口 |----|
①①口口 |①---|
口口②② |②---|
③④口口 |③-④-|
12
口③②口 |①---|
④口③② |②---|
口口口口 |③---|
口口①口 |④---|
13
口口口口 |①---|
口①口口 |②---|
口②③④ |③---|
②③④口 |④---|
14
②口口口 |①---|
口③口口 |②---|
口口④口 |③---|
口口口① |④---|
15
口②口口 |----|
口口①口 |----|
口①口② |①---|
口口口口 |②---|
16
口口②口 |①---|
①口口③ |②---|
②口口口 |③---|
口③①口 |----|
17
②③④口 |①---|
③①①口 |②---|
④①①口 |③---|
口口口口 |④---|
18
口口口① |①---|
口口口② |----|
口口②口 |②---|
①口口② |----|
19
口③口口 |①---|
口②①④ |----|
②①口口 |②---|
口②①口 |③-④-|
20
口口口口 |①---|
口③②口 |----|
口口口口 |----|
①口口口 |②-③-|
21
口口口口 |----|
③口口口 |①---|
②口口口 |②---|
①口口口 |③---|
22
口④⑤口 |①---|
口③口口 |②---|
口②口口 |③---|
口①口口 |④-⑤-|
23
口③口口 |----|
③口口口 |①---|
②口口① |②---|
口②①口 |③---|
24
②口①② |①---|
口口口① |----|
口口口口 |②---|
口口口口 |----|
25
口口口口 |①---|
口口口口 |②---|
口②①口 |----|
口②①口 |----|
26
④口②口 |①---|
口口②① |②---|
口口②口 |③---|
口③③③ |④---|
27
口口口口 |①---|
口口口口 |----|
①口口口 |----|
口口口口 |----|
28
②②①① |①---|
口口口口 |----|
口口口口 |②---|
口口口口 |----|
29
③③③③ |①---|
②②②② |②---|
①①①① |③---|
口④口口 |④---|
30
口口口口 |①---|
④口口⑤ |②---|
口②①口 |③---|
口口③口 |④-⑤-|
31
口口口口 |----|
口口口口 |----|
口口口口 |----|
口口口口 |----|
32
口②口① |①---|
①口口口 |----|
口口口① |----|
①口口口 |②---|
33
②口口③ |①---|
口②③口 |----|
①①①① |②---|
口口口口 |③---|
34
口①①口 |①---|
口口口口 |----|
口口口口 |②---|
口②②口 |----|
35
口②①口 |①---|
口口口口 |----|
口口口口 |②---|
①口口② |----|
36
①口口① |①---|
口②③口 |②-③-|
④①①⑤ |--④-|
⑥口口口 |⑤-⑥-|
37
②口口③ |①---|
②口口③ |②---|
口③②口 |③---|
口口口① |----|
38
口口口口 |①---|
口②③口 |②-③-|
④口口⑤ |--④-|
⑥①①口 |⑤-⑥-|
39
②口口③ |①---|
②口口③ |②---|
口③②口 |③---|
口口口① |----|
40
口口口口 |①---|
口①口口 |----|
口口②口 |②---|
口口口口 |----|
41
②口口口 |①---|
口口口口 |----|
口口口口 |②---|
口口口① |----|
42
口口口口 |①---|
口口①口 |----|
②口口口 |②---|
口口口口 |----|
43
口口口口 |①---|
口口口口 |②---|
口口③口 |----|
②口口① |③---|
44
口口口口 |①---|
③①④口 |②---|
口口④② |③---|
口口口口 |④---|
45
口口②口 |①---|
口①口口 |----|
口①口口 |②---|
口③口口 |③---|
46
口口口口 |----|
口口口口 |----|
口口口口 |----|
口口口口 |----|
47
口口口① |①---|
口②口口 |②---|
口口口③ |③---|
④口口口 |④---|
48
⑧⑧①① |①-②-|
④口口③ |③-④-|
⑥②⑦⑦ |⑤-⑥-|
口口⑤口 |⑦-⑧-|
49
⑧口口① |①-②-|
口④口⑤ |③-④-|
⑥口⑦⑦ |⑤-⑥-|
②口口③ |⑦-⑧-|
50
⑧⑧①① |①-②-|
④口③口 |③-④-|
口口⑦⑦ |⑤-⑥-|
②⑥口⑤ |⑦-⑧-|
51
口口口⑤ |①-②-|
⑥口口① |③-④-|
②口⑦⑦ |⑤-⑥-|
④⑧③口 |⑦-⑧-|
52
②口⑤⑤ |①-②-|
口⑥①① |③-④-|
④口⑦⑦ |⑤-⑥-|
⑧口③③ |⑦-⑧-|
53
⑧口⑤⑤ |①-②-|
②口口① |③-④-|
⑥口⑦⑦ |⑤-⑥-|
口④③③ |⑦-⑧-|
54
口口口口 |①---|
口①①口 |----|
口口口口 |②---|
②口口② |----|
55
②②①① |①---|
口⑤⑤口 |②---|
口口口口 |③---|
③③④④ |④-⑤-|
56
⑤⑥⑦⑧ |①-②-|
口口口口 |③-④-|
①②③④ |⑤-⑥-|
口口口口 |⑦-⑧-|
57
口口口口 |①-②-|
①③③① |③-④-|
⑤⑦⑦⑤ |⑤-⑥-|
⑥②④⑧ |⑦-⑧-|
58
①①口口 |①---|
③③③② |②---|
口口⑤④ |③-④-|
口口口口 |⑤---|
59
①①口① |①---|
口⑤口② |②---|
⑤口口⑤ |③-④-|
②②④③ |⑤---|
60
①口③③ |①---|
②口口口 |②---|
口③口口 |③-④-|
④⑤口口 |⑤---|
61
口①口口 |①---|
④⑤口① |②---|
②③②口 |③-④-|
口口⑤③ |⑤---|
62
①①口口 |①---|
口口⑤④ |②---|
口口③② |③-④-|
③③口口 |⑤---|
63
⑤⑤④③ |①---|
②①口⑤ |②---|
①②口② |③-④-|
口口①口 |⑤---|
64
口口口口 |①---|
③口②④ |----|
口③④② |②---③-|
口口①① |--④---|
65
口口口口 |①---|
口①口口 |②---|
①口口口 |③---|
②③④口 |④---|
66
⑦⑥⑤④ |①-②-|
①⑧⑥⑤ |③-④-|
②③⑧⑥ |⑤-⑥-|
口口口⑦ |⑦-⑧-|
67
口⑤口口 |----|
口口④③ |①---|
口口口口 |②-③-|
①②口口 |④-⑤-|
68
口口③① |①---|
口⑤口⑤ |②-③-|
口②⑤口 |--④-|
④⑤口口 |--⑤-|
69
①口口口 |----|
口口②口 |①---|
口③口口 |②---|
口口口口 |③---|
70
④口④口 |①---|
口③口③ |②---|
②口②口 |③---|
口①口① |④---|
71
④③口③ |①---|
口口口口 |②---|
④②口② |③---|
①口①口 |④---|
72
口口①口 |①---|
口②④③ |②---|
口④①口 |③---|
口②口③ |④---|
73
口①②② |①---|
①口口口 |----|
口口口① |②---|
②②①口 |----|
74
①①口口 |①---|
③③③② |②---|
口口⑤④ |③-④-|
口口口口 |⑤---|
75
①①口口 |①---|
口⑤口② |②---|
⑤口口⑤ |③-④-|
②②④③ |⑤---|
76
①口③③ |①---|
②口口口 |②---|
口③口口 |③-④-|
④⑤口口 |⑤---|
77
口口口口 |①---|
④⑤口① |②---|
②③②口 |③-④-|
口口⑤③ |⑤---|
78
①①口口 |①---|
口口⑤④ |②---|
口口③② |③-④-|
③③口口 |⑤---|
79
⑤⑤④③ |①---|
②①口⑤ |②---|
①②口② |③-④-|
口口口口 |⑤---|
80
口口口口 |①---|
口⑥④口 |②---|
③口⑤口 |③-④-|
②口①① |⑤-⑥-|
81
口①口② |①---|
①口口口 |②-③-|
口口口口 |--④-|
⑤⑤④③ |⑤---|
82
②②口口 |①---|
③③③③ |②---|
口口①① |③---|
口口口口 |----|
83
口③口口 |①---|
②口口口 |----|
③①①口 |②---|
口②口口 |③---|
84
③口①④ |①---|
口口口② |②---|
口③④① |③---|
口口②口 |④---|
85
②口口口 |①---|
口①①口 |----|
口口口口 |----|
①口口① |②---|
86
口口口④ |①---|
②③口口 |②-③-|
口口口口 |----|
口①口口 |④---|
87
口口口口 |①---|
④口③② |②-③-|
口口口④ |----|
口口①口 |④---|
88
④口②④ |①---|
口①口口 |②---|
口口①口 |③---|
③②口③ |④---|
89
口口口口 |----|
①②口口 |----|
①③②口 |①-②-|
①②口口 |--③-|
90
②②口① |①---|
③口①口 |--②-|
口口口① |----|
口口口口 |③---|
91
口口口① |①---|
口口口口 |②---|
③④口⑤ |③-④-|
口口口② |⑤---|
92
①口口口 |①---|
口③口口 |②---|
口口口口 |③---|
口口④② |④---|
93
口口①① |①-②-|
口口③③ |③-④-|
⑥⑧⑤⑤ |⑤-⑥-|
②④⑦⑦ |⑦-⑧-|
94
①①①① |①---|
口口口口 |----|
口口口口 |----|
口口口口 |----|

不確定度: 0

最終更新:2014年12月11日 23:07