MITOれて!いばらきっしゅだ~りん
水戸ご当地アイドル(仮)

EXTREME

Level: 9
BPM: 167
Notes: 621

1
口口口口 |----|
口口口口 |----|
口口口口 |----|
口口口口 |----|
2
口口口口 |----|
④口口⑤ |--①-|
口②③⑤ |②-③-|
口②口① |④-⑤-|
3
①①①① |①---|
口④口口 |--②-|
口口口口 |③---|
③②②③ |--④-|
4
口口口口 |①---|
①口①① |②---|
③②③③ |③---|
口④口口 |④---|
5
②口③口 |①---|
口④③口 |----|
⑤口口⑤ |②-③-|
①口①① |④-⑤-|
6
口③③③ |--①-|
③口⑤口 |②---|
口④④④ |--③-|
口②①口 |④-⑤-|
7
口口口口 |①---|
口③③③ |----|
口②②② |②---|
口口①口 |--③-|
8
③口①口 |①--②|
②口口口 |--③-|
口口口口
口口口口

口口⑤④
口口口⑤
⑤口口口 |④---|
④⑤口口 |⑤---|
9
口①⑥口 |①---|
③⑤②⑥ |②-③-|
⑥④⑤① |④-⑤-|
口⑥③口 |--⑥-|
10
⑤④口① |--①-|
③口②口 |②-③-|
⑤④口① |④---|
口口口口 |⑤---|
11
口口口① |①---|
口口②口 |②-③-|
口③口①
口口口口

口⑥口口
⑥④口口
口口⑤⑥ |④-⑤-|
口口⑥口 |--⑥-|
12
①口④⑤ |--①-|
口②口③ |②-③-|
①口④⑤ |④---|
口口口口 |⑤---|
13
①口口口 |①---|
③口②口 |②-③-|
①口口口
口口③口

口口⑥口
口⑤口⑥
⑥④⑤口 |④-⑤-|
口⑥口口 |--⑥-|
14
⑤④口① |--①-|
③口②口 |②-③-|
⑤④口① |④---|
口口口口 |⑤---|
15
口口口① |①---|
口口②口 |②-③-|
口③口①
口口口口

口⑥口口
⑥④口口
口口⑤⑥ |④-⑤-|
口口⑥口 |--⑥-|
16
口④口① |----|
口②③口 |①---|
口③②口 |②---|
①口口口 |③-④-|
17
⑤④口口 |①---|
①口口② |②-③-|
⑤口③口 |--④-|
口口口口 |⑤---|
18
口口口① |①-②-|
①口⑦③ |③---|
⑤②口④ |④-⑤-|
③⑥口⑥ |⑥-⑦-|
19
口口③口 |①---|
口②④口 |②---|
③口①口 |--③-|
口④⑤口 |④-⑤-|
20
口口口口 |①-②-|
①口口口 |③---|
口②口口 |----|
③口口④ |④---|
21
①口口口 |①---|
口口②① |②-③-|
④②③⑤ |--④-|
口⑤口口 |⑤---|
22
口口⑥④ |①-②-|
①口口③ |③---|
⑤②口口 |④-⑤-|
③⑥口① |⑥---|
23
口口口口 |①---|
③②①口 |②---|
口④口⑤ |③-④-|
⑤口③⑥ |⑤-⑥-|
24
口⑥④⑤ |①-②-|
口①④口 |③---|
②④口⑤ |④---|
口③口口 |⑤-⑥-|
25
⑤④口口 |①---|
①口口② |②-③-|
⑤口③口 |--④-|
口口口口 |⑤---|
26
口口口① |①-②-|
①口口③ |③---|
⑤②口④ |④-⑤-|
③⑥口⑥ |⑥---|
27
③口口口 |①---|
口②⑤③ |②---|
④口①口 |③-④-|
口⑤口口 |⑤---|
28
口口①口 |①-②-|
①口口口 |③---|
④②口口 |--④-|
③⑤⑥⑥ |⑤-⑥-|
29
①口①① |①---|
口口②口 |②-③-|
④②③⑤ |--④-|
口⑤口口 |⑤---|
30
口口⑥④ |①-②-|
①④⑦③ |③---|
⑤②口口 |④-⑤-|
③⑥口① |⑥-⑦-|
31
②口口口 |①---|
④②口口 |②-③-|
口⑤①③ |④-⑤-|
⑥口口④ |⑥---|
32
口口⑤口 |①-②-|
口①口⑤ |③---|
②口③④ |④---|
口③④③ |⑤---|
33
口口口① |①---|
②口①口 |②-③-|
口③口口
口口口口

口口口⑤
口口⑥口
口口口⑤ |④---|
口口④口 |⑤-⑥-|
34
口口①③ |--①-|
⑤口④② |②---|
口口①③ |③---|
口口口口 |④-⑤-|
35
口口口口 |①---|
口①口口 |②---|
口口②口
口口口口

④口口口
口⑤口口
④口口口 |③---|
口③口口 |④-⑤-|
36
③①口口 |--①-|
②④口口 |②---|
③①口口 |③---|
口口口⑤ |④-⑤-|
37
②③③⑤ |①---|
②④③⑤ |②---|
②②③⑤ |③-④-|
口口①口 |--⑤-|
38
①②③口 |----|
口口口口 |①---|
口口口口 |②---|
口③②① |③---|
39
口口口① |①---|
口口口口 |----|
口口口口
①口口口

②③④⑤
口口口口
口口口口 |②-③-|
⑤④③② |④-⑤-|
40
口口口口 |--①-|
口①③⑤ |②---|
口④②⑥ |③-④-|
口口口⑦ |⑤⑥⑦-|
41
口①口⑤ |①---|
②口⑥口 |②-③-|
口③口⑤ |④---|
口口④口 |⑤-⑥-|
42
口口①③ |--①-|
⑤口④② |②---|
口口①③ |③---|
口口口口 |④-⑤-|
43
口口口口 |①---|
口①口口 |②-③-|
口口②口
口③口口

⑤口口口
口⑥口口
⑤口口口 |④---|
口口④口 |⑤-⑥-|
44
③①口口 |--①-|
②口口口 |②---|
③①口口 |③---|
口口口口 |----|
45
口④口⑤ |①---|
口口③口 |②---|
口口②口 |③--④|
⑤口①口 |--⑤-|
46
①口③口 |①---|
①口④② |②---|
②④口① |③---|
口③口① |④---|
47
①口口① |①---|
口口口口 |--②-|
②口④② |③---|
③口④③ |--④-|
48
口口④④ |①-②-|
③②④口 |③---|
口①⑤⑤ |④---|
口口⑤⑤ |⑤---|
49
口①口口 |①---|
①口口口 |②---|
口①口口
①②口口

④口口④
⑤③③⑤
④口口④ |③-④-|
口口口口 |--⑤-|
50
口①①口 |--①-|
口②②口 |--②-|
⑤①①④ |③-④-|
口③③口 |⑤---|
51
⑥口口⑥ |----|
口⑥⑥口 |①-②-|
⑥②口⑥ |③-④-|
①⑤④③ |⑤-⑥-|
52
口口口口 |----|
④口口⑤ |--①-|
口②③⑤ |②-③-|
口②口① |④-⑤-|
53
①①①① |①---|
口④口口 |--②-|
口口口口 |③---|
③②②③ |--④-|
54
口口口① |①---|
①口①③ |②---|
③③②口 |③---|
口④口口 |④---|
55
口口口口 |①---|
口口口口 |②---|
口口②①
①口①口

③口④口
口⑤④口
⑥口口⑥ |③-④-|
口口口口 |⑤-⑥-|
56
口④口口 |--①-|
⑤口口口 |②---|
口⑥口口 |③-④-|
③②①③ |⑤-⑥-|
57
口口口③ |①---|
口②①④ |②-③-|
口口⑤口 |④---|
口口口口 |--⑤-|
58
②口口② |①---|
口口①口 |②---|
口①口①
口口①口

口口口口
③口口③
④口口④ |③---|
口口口口 |④---|
59
口口口口 |①---|
口口口口 |----|
口口口口
①口口①

口口口②
口口③口
⑤④口口 |②-③-|
⑤⑤口口 |④-⑤-|
60
口口口口 |----|
④②口⑤ |--①-|
口②③⑤ |②-③-|
口口口① |④-⑤-|
61
①①①① |①---|
口口口口 |--②-|
口口口口
口②②口

口口④口
口口口口
口口口口 |③---|
③口口③ |--④-|
62
①口口口 |①---|
③①口① |②---|
口②③③ |③---|
口口④口 |④---|
63
③口④口 |①---|
口⑤④口 |②---|
⑥①②⑥ |③-④-|
①口口① |⑤-⑥-|
64
口④口口 |--①-|
⑤口口口 |②---|
口⑥口口 |③-④-|
③②①③ |⑤-⑥-|
65
④④④口 |①---|
口②①③ |--②-|
口口口口 |③---|
口口口口 |--④-|
66
⑤⑤⑤口 |①--②|
①④①口 |--③-|
②②②口 |④---|
③③③口 |⑤---|
67
口口口① |①---|
③口②口 |②-③-|
①口口口
口口③口

口口⑥口
口⑤口⑥
⑥④⑤口 |④-⑤-|
口⑥口口 |--⑥-|
68
⑤④口① |--①-|
③口②口 |②-③-|
⑤④口① |④---|
口口口口 |⑤---|
69
口口口① |①---|
口口②口 |②-③-|
口③口①
口口口口

口⑥口口
⑥④口口
口口⑤⑥ |④-⑤-|
口口⑥口 |--⑥-|
70
①口④⑤ |--①-|
口②口③ |②-③-|
①口④⑤ |④---|
口口口口 |⑤---|
71
①口口口 |①---|
③口②口 |②-③-|
①口口口
口口③口

口口⑥口
口⑤口⑥
⑥④⑤口 |④-⑤-|
口⑥口口 |--⑥-|
72
⑤④口① |--①-|
③口②口 |②-③-|
⑤④口① |④---|
口口口口 |⑤---|
73
口口口① |①---|
口口②口 |②-③-|
口③口①
口口口口

口⑥口口
⑥④口口
口口⑤⑥ |④-⑤-|
口口⑥口 |--⑥-|
74
口口口口 |----|
口口口口 |----|
口口口口 |----|
口口口口 |----|
75
①口口口 |①---|
②①④口 |--②-|
③②④④ |----|
口③④口 |③-④-|

不確定度: 0

最終更新:2014年12月12日 01:37