HEAVENLY MOON
Tatsh

BASIC

Level: 5
BPM: 185
Notes: 347

1
口口口口 |----|
口口口口 |----|
口口口口 |----|
口口口口 |----|
2
口口口口 |①---|
口①②口 |②---|
口④③口 |③---|
口口口口 |④---|
3
口口口口 |①---|
②口口口 |②---|
①口口口 |----|
口口口口 |----|
4
口口口口 |①---|
口②③口 |②---|
口①④口 |③---|
口口口口 |④---|
5
口口口口 |①---|
口口口口 |②---|
口口口口 |----|
口②①口 |----|
6
口口口口 |①---|
口③④口 |②---|
口②①口 |③---|
口口口口 |④---|
7
口口口口 |①---|
口口口① |②---|
口口口② |----|
口口口口 |----|
8
口①①口 |①---|
②口口② |----|
口口口口 |②---|
口口口口 |----|
9
口口口口 |①--②|
口口口口 |----|
口①②口 |③---|
口③③口 |----|
10
口口口口 |①---|
口③④口 |②---|
口②口口 |③---|
①口口① |④---|
11
口口口口 |①---|
口口口口 |----|
口口①口 |----|
口口口口 |----|
12
口②③口 |----|
口①口口 |①---|
口口口口 |②---|
口口口口 |③---|
13
口口口口 |①---|
口口①口 |----|
②③口口 |②---|
口口口口 |③---|
14
口口口口 |①---|
口口口口 |----|
口口①口 |----|
口口口② |②---|
15
口口口口 |①---|
口口口口 |----|
口口口口 |----|
口口①口 |----|
16
口口口口 |①---|
口②口口 |----|
口口口口 |----|
①口口口 |②---|
17
口口口口 |①---|
口口①口 |----|
口口口口 |----|
口口口口 |----|
18
口口口口 |①---|
口口口口 |----|
口①①口 |----|
口口口口 |----|
19
口口口口 |----|
口口口口 |----|
口口口口 |----|
口口口口 |----|
20
②④口口 |①---|
口口口口 |②---|
①③口口 |③---|
口口口口 |④---|
21
口口口口 |①---|
口口④② |②---|
口口口口 |③---|
口口③① |④---|
22
口口口口 |①---|
②④口口 |②---|
口口口口 |③---|
①③口口 |④---|
23
口④④② |①---|
口口口口 |②---|
口③③① |③---|
口口口口 |④---|
24
②④口口 |①---|
口口口口 |②---|
①③口口 |③---|
口口口口 |④---|
25
口口口口 |①---|
口口④② |②---|
口口口口 |③---|
口口③① |④---|
26
口口口口 |①---|
②④口口 |②---|
口口口口 |③---|
①③口口 |④---|
27
④口②② |①---|
口⑤口口 |②---|
③③①① |③---|
口口口口 |④-⑤-|
28
口口口口 |①---|
③口口口 |--②-|
口口①口 |----|
②口口口 |③---|
29
口口口口 |①---|
口口口③ |--②-|
口①口口 |----|
口口口② |③---|
30
口口口口 |①---|
③口口口 |--②-|
口口①口 |----|
②口口口 |③---|
31
口③口口 |①---|
口②④口 |②---|
口①口口 |③---|
口口口口 |④---|
32
口口口口 |①---|
③口口口 |--②-|
口口①口 |----|
②口口口 |③---|
33
口口口口 |①---|
口口口③ |--②-|
口①口口 |----|
口口口② |③---|
34
口口口口 |①---|
口口口口 |----|
口①①口 |----|
口口口口 |----|
35
④口口④ |①---|
③口口③ |②---|
口①②口 |③---|
口口口口 |④---|
36
口口口口 |----|
口口口口 |----|
口口口口 |----|
口口口口 |----|
37
口口口口 |①---|
①①①① |----|
口口口口 |----|
口口口口 |----|
38
口口口口 |①---|
口口口口 |----|
①①①① |----|
口口口口 |----|
39
口口口口 |①---|
①①①① |----|
口口口口 |----|
口口口口 |----|
40
口口口口 |①---|
口口口口 |②---|
①口口② |----|
口口口口 |----|
41
口口口口 |①---|
①①①① |----|
口口口口 |----|
口口口口 |----|
42
口口口口 |①---|
口口口口 |----|
①①①① |----|
口口口口 |----|
43
口口口口 |①---|
①①②② |②---|
③③④④ |③---|
口口口口 |④---|
44
①①①① |①---|
口口口口 |----|
口口口口 |----|
口口口口 |----|
45
口口口口 |①---|
①③②口 |--②-|
口①③② |----|
口口口口 |③---|
46
口口口口 |----|
口口口口 |----|
口口口口 |----|
口口口口 |----|
47
口口口口 |①---|
口①①口 |----|
口①①口 |----|
口口口口 |----|
48
口口口口 |①---|
①口口① |----|
①口口① |----|
口口口口 |----|
49
口①口口 |①---|
口②口口 |②---|
口③口口 |③---|
口④口口 |④---|
50
口口①口 |①---|
口口②口 |②---|
口口③口 |③---|
口口④口 |④---|
51
口口口④ |①---|
口口口③ |②---|
口口口② |③---|
口口口① |④---|
52
①口口口 |①---|
口②口口 |②---|
③口口口 |③---|
口④口口 |④---|
53
口口口口 |①---|
口口②② |----|
口口口口 |②---|
口口①① |----|
54
①①口口 |①---|
口口口口 |----|
口口口口 |----|
口口口口 |----|
55
②口口③ |①---|
口①①口 |----|
口①①口 |②---|
口口口口 |③---|
56
口口口口 |①---|
②①①③ |----|
口①①口 |②---|
口口口口 |③---|
57
口口口口 |①---|
口①①口 |----|
②①①③ |②---|
口口口口 |③---|
58
口口口口 |①---|
口①①口 |----|
口①①口 |②---|
②口口③ |③---|
59
②口口③ |①---|
口①①口 |----|
口①①口 |②---|
口口口口 |③---|
60
口口口口 |①---|
②①①③ |----|
口①①口 |②---|
口口口口 |③---|
61
口口口口 |①---|
口①①口 |----|
②①①③ |②---|
口口口口 |③---|
62
口口口口 |①---|
②①①③ |----|
②①①③ |②---|
口口口口 |③---|
63
①口②口 |①---|
口③口④ |②---|
口口口口 |③---|
口口口口 |④---|
64
口口口口 |①---|
口口口口 |②---|
①口②口 |③---|
口③口④ |④---|
65
口①口② |①---|
③口④口 |②---|
口口口口 |③---|
口口口口 |④---|
66
口口口口 |①---|
口口口口 |②---|
口①口② |③---|
③口④口 |④---|
67
口②口④ |①---|
①口③口 |②---|
口口口口 |③---|
口口口口 |④---|
68
口口口口 |①---|
口口口口 |②---|
口②口④ |③---|
①口③口 |④---|
69
②①①② |①---|
②①①② |----|
口口口口 |②---|
口口口口 |----|
70
口④④口 |①---|
口③③口 |②---|
口②②口 |③---|
口①①口 |④---|
71
口③口口 |----|
①口②① |①---|
①口口① |②---|
口口口口 |③---|
72
口口①口 |①---|
口②口口 |②---|
口口③口 |③---|
口④口口 |④---|
73
口口③口 |①---|
口②口④ |②---|
①口口口 |③---|
口口口口 |④---|
74
口口口口 |①---|
口④口口 |②---|
③口①口 |③---|
口②口口 |④---|
75
①口口① |----|
①口口① |①---|
口②口口 |②---|
口口③口 |③---|
76
口③口口 |①---|
④口②口 |②---|
口口口① |③---|
口口口口 |④---|
77
口口口口 |①---|
口口口口 |----|
口①口口 |----|
口口口口 |----|
78
口口口口 |①---|
口口口口 |----|
口口①口 |----|
口口口口 |----|
79
①④口口 |①---|
②③口口 |②---|
口口口口 |③---|
口口口口 |④---|
80
口口口口 |①---|
口口口口 |②---|
①④口口 |③---|
②③口口 |④---|
81
口口④① |①---|
口口③② |②---|
口口口口 |③---|
口口口口 |④---|
82
口口口口 |①---|
口口口口 |②---|
口口④① |③---|
口口③② |④---|
83
口①①口 |①---|
口②②口 |--②-|
口③③口 |----|
口口口口 |③---|
84
口口口口 |----|
口口口口 |----|
口口口口 |----|
①口口① |①---|
85
口③③口 |①---|
口②②口 |--②-|
口①①口 |----|
口口口口 |③---|
86
口口口口 |----|
口口口口 |----|
口口口口 |----|
口口口口 |----|
87
口④④口 |①---|
③口口③ |②---|
口②②口 |③---|
①口口① |④---|
88
①口口① |①---|
口②②口 |②---|
③口口③ |③---|
④口口④ |④---|


不确定度: 0

最終更新:2012年11月08日 18:21