HEAVENLY MOON
Tatsh

ADVANCED

Level: 8
BPM: 185
Notes: 596

1
口口口口 |----|
口口口口 |----|
口口口口 |----|
口口口口 |----|
2
口口口口 |①-②-|
①③②④ |③-④-|
⑤⑦⑥⑧ |⑤-⑥-|
口口口口 |⑦-⑧-|
3
口口口口 |①-②-|
①③②④ |③-④-|
口口口口 |----|
口口口口 |----|
4
口口口口 |①-②-|
①③②④ |③-④-|
⑤⑦⑥⑧ |⑤-⑥-|
口口口口 |⑦-⑧-|
5
口口口口 |①-②-|
①③②④ |③-④-|
口口口口 |----|
口口口口 |----|
6
口口口口 |①-②-|
①③②④ |③-④-|
⑤⑦⑥⑧ |⑤-⑥-|
口口口口 |⑦-⑧-|
7
口口口口 |①-②-|
①③②④ |③-④-|
口口口口 |----|
口口口口 |----|
8
口口口口 |①-②-|
①②③口 |③---|
口口口④ |④---|
⑤⑥口口 |⑤-⑥-|
9
④⑤⑥⑦ |①--②|
口口③口 |--③-|
口②口口 |④-⑤-|
口口①口 |⑥-⑦-|
10
③口口④ |①---|
口④口口 |②---|
口③②口 |③---|
②①①口 |④---|
11
口口口口 |①---|
口口①口 |----|
口口口口 |----|
口口口① |----|
12
②口口③ |----|
口③口口 |①---|
口②①口 |②---|
①口口口 |③---|
13
口口口口 |①---|
口③①口 |----|
②口③口 |②---|
口②口① |③---|
14
口口①口 |①---|
口口口① |----|
口口口口 |----|
口口口② |②---|
15
①口口口 |①---|
口口口口 |----|
口口口口 |----|
口口口口 |----|
16
口①口① |①---|
口口③口 |----|
①口①口 |----|
口②口口 |②-③-|
17
①口口口 |①---|
口口口口 |----|
口口口口 |----|
口口口口 |----|
18
口①口① |①---|
口口口口 |----|
①口①口 |----|
口口口口 |----|
19
口①口口 |①②--|
口②口口 |③--④|
口③④口 |----|
口③④口 |----|
20
口口③口 |①--②|
口②口⑥ |--③-|
①口⑤口 |④--⑤|
口④口口 |--⑥-|
21
口⑥口口 |①--②|
③口⑤口 |--③-|
口②口④ |④--⑤|
口口①口 |--⑥-|
22
口口③口 |①--②|
口②口⑥ |--③-|
①口⑤口 |④--⑤|
口④口口 |--⑥-|
23
口⑦口⑤ |①--②|
③口⑥口 |--③-|
口②口④ |④-⑤-|
口口①口 |⑥-⑦-|
24
口口③口 |①--②|
口②口⑥ |--③-|
①口⑤口 |④--⑤|
口④口口 |--⑥-|
25
口⑥口口 |①--②|
③口⑤口 |--③-|
口②口④ |④--⑤|
口口①口 |--⑥-|
26
口口③口 |①--②|
口②口⑦ |--③-|
①口⑥口 |④-⑤-|
口④口⑤ |⑥-⑦-|
27
口⑨⑩⑥ |①-②-|
④⑧⑦口 |③-④-|
口③口⑤ |⑤-⑥-|
②口①口 |⑦⑧⑨⑩|
28
①口口口 |①---|
口口口口 |--②-|
口③③口 |----|
口口口② |③---|
29
口口口① |①---|
口口口口 |--②-|
口③③口 |----|
②口口口 |③---|
30
①口口口 |①---|
口口口口 |--②-|
口③③口 |----|
口口口② |③---|
31
口⑤口① |①-②-|
⑥口②口 |③-④-|
口⑦口③ |⑤-⑥-|
⑧口④口 |⑦-⑧-|
32
①口口口 |①---|
口口口口 |--②-|
口③③口 |----|
口口口② |③---|
33
口口口① |①---|
口口口口 |--②-|
口③③口 |----|
②口口口 |③---|
34
口①①口 |①---|
①口口① |----|
口口口口 |----|
口口口口 |----|
35
①⑤⑥② |①-②-|
口⑦⑧口 |③-④-|
口⑨⑩口 |⑤⑥⑦⑧|
③⑪口④ |⑨⑩⑪-|
36
口口口口 |----|
口口口口 |----|
口口口口 |----|
口口口口 |----|
37
口②口口 |①---|
①口④口 |②-③-|
口③口① |--④-|
口口⑤口 |⑤---|
38
口口④口 |①---|
口②口① |②-③-|
①口⑤口 |--④-|
口③口口 |⑤---|
39
口②口口 |①---|
①口④口 |②-③-|
口③口① |--④-|
口口⑤口 |⑤---|
40
⑤口④口 |①-②-|
②③口① |③-④-|
①口③② |--⑤-|
口④口⑥ |⑥---|
41
口②口口 |①---|
①口④口 |②-③-|
口③口① |--④-|
口口⑤口 |⑤---|
42
口口④口 |①---|
口②口① |②-③-|
①口⑤口 |--④-|
口③口口 |⑤---|
43
口③口口 |①---|
①口⑤口 |②-③-|
口②口① |--④-|
口口④口 |⑤---|
44
口口口口 |①-②-|
⑤②口④ |③-④-|
①口③⑤ |----|
口口口口 |⑤---|
45
①口口② |①---|
口②①③ |--②-|
③①②口 |----|
②口口① |③---|
46
口口口口 |----|
口口口口 |----|
口口口口 |----|
口口口口 |----|
47
口口口口 |①---|
口①口口 |----|
口口口口 |----|
口口口口 |----|
48
口口口口 |①---|
口口①口 |----|
口口②口 |②---|
口口口口 |----|
49
④⑤⑧口 |①-②-|
③⑥⑦口 |③-④-|
②①口口 |⑤-⑥-|
口口口口 |⑦-⑧-|
50
口口口① |①-②-|
口口口② |③-④-|
口⑦⑥③ |⑤-⑥-|
口⑧⑤④ |⑦-⑧-|
51
④⑤⑧口 |①-②-|
③⑥⑦口 |③-④-|
②口口口 |⑤-⑥-|
①口口口 |⑦-⑧-|
52
口口口① |①-②-|
口口口② |③-④-|
口⑦⑥③ |⑤-⑥-|
口⑧⑤④ |⑦-⑧-|
53
①⑤⑥② |①-②-|
①⑤⑥② |③-④-|
④⑦⑧③ |⑤-⑥-|
④⑨⑩③ |⑦⑧⑨⑩|
54
①口口① |①---|
口口口口 |----|
口口口口 |----|
口口口口 |----|
55
①①⑧⑧ |①-②-|
③口⑥④ |③-④-|
③⑦口④ |⑤-⑥⑦|
⑤⑤②② |--⑧-|
56
①①⑧⑧ |①-②-|
③⑦口④ |③-④-|
③口⑥④ |⑤-⑥⑦|
⑤⑤②② |--⑧-|
57
①①⑧⑧ |①-②-|
③口⑥④ |③-④-|
③⑦口④ |⑤-⑥⑦|
⑤⑤②② |--⑧-|
58
①①⑩⑪ |①-②-|
③⑨⑧④ |③-④-|
③⑦⑥④ |⑤-⑥⑦|
⑤⑤②② |⑧⑨⑩⑪|
59
①①⑧⑧ |①-②-|
③口⑥④ |③-④-|
③⑦口④ |⑤-⑥⑦|
⑤⑤②② |--⑧-|
60
①①⑩⑪ |①-②-|
③⑨⑧④ |③-④-|
③⑦⑥④ |⑤-⑥⑦|
⑤⑤②② |⑧⑨⑩⑪|
61
①①⑧⑧ |①-②-|
③口⑥④ |③-④-|
③⑦口④ |⑤-⑥⑦|
⑤⑤②② |--⑧-|
62
①③口口 |①-②-|
⑤口⑧口 |③-④-|
口⑦口⑥ |⑤-⑥-|
口口④② |⑦-⑧-|
63
口⑦③口 |①-②-|
口②⑧⑥ |③-④-|
①口⑤口 |⑤-⑥-|
口④口口 |⑦-⑧-|
64
⑤口口⑥ |①-②-|
②口口口 |③-④-|
口③口① |⑤-⑥-|
⑦口④⑧ |⑦-⑧-|
65
口⑤③口 |①-②-|
口②⑥口 |③-④-|
①口口⑦ |--⑤-|
口④口口 |⑥-⑦-|
66
①⑤口口 |--①-|
③口⑥④ |②---|
口⑦口口 |③-④-|
口口⑧② |⑤⑥⑦⑧|
67
口⑦③口 |①-②-|
口②⑧⑥ |③-④-|
①口⑤口 |⑤-⑥-|
口④口口 |⑦-⑧-|
68
口口口口 |①-②-|
②口口口 |③-④-|
口③口①
口口④口

⑤口口⑥
口口口口
口口⑨⑩ |⑤-⑥-|
⑦⑧口口 |⑦⑧⑨⑩|
69
口口③⑤ |①-②-|
口②⑥④ |③-④-|
①⑦口口 |⑤-⑥-|
⑧口口口 |⑦-⑧-|
70
①口②口 |①-②-|
口③口④ |③-④-|
⑤口⑥口 |⑤-⑥-|
口⑦口⑧ |⑦-⑧-|
71
⑤①④① |----|
口①①① |①-②-|
口①口① |③---|
③口②口 |④-⑤-|
72
口口口口 |--①-|
口⑥⑦口 |②-③-|
③口⑤④ |④-⑤-|
口②口① |⑥-⑦-|
73
⑤①口口 |①---|
⑤口口口 |②-③-|
口口口口 |④---|
口④③② |⑤---|
74
口口口① |①---|
⑥口口① |②-③-|
⑤口口口 |④---|
口④③② |⑤-⑥-|
75
①②口② |①---|
口②②② |②-③-|
⑥②⑤② |④---|
④口③口 |⑤-⑥-|
76
③②①口 |①-②-|
口④⑤⑥ |③-④-|
⑦口口⑧ |⑤-⑥-|
口口口口 |⑦-⑧-|
77
口口口口 |①---|
口口口口 |----|
口口口口 |----|
口①①口 |----|
78
②口口② |①---|
口口口口 |----|
口口口口 |②---|
①口口① |----|
79
口口口口 |①-②-|
口口口口 |③-④-|
②④⑥⑧ |⑤-⑥-|
①③⑤⑦ |⑦-⑧-|
80
①③⑤⑦ |①-②-|
②④⑥⑧ |③-④-|
口口口口 |⑤-⑥-|
口口口口 |⑦-⑧-|
81
口口口口 |①-②-|
口口口口 |③-④-|
③④⑦⑧ |⑤-⑥-|
①②⑤⑥ |⑦-⑧-|
82
①③⑤⑦ |①-②-|
②④⑥⑧ |③-④-|
口口口口 |⑤-⑥-|
口口口口 |⑦-⑧-|
83
口口口口 |①---|
③口口③ |--②-|
口口口口 |----|
②①①② |③---|
84
口①②口 |----|
口③④口 |----|
口口口口 |----|
口口口口 |①②③④|
85
③口口③ |①---|
口口口口 |--②-|
口口口口 |----|
②①①② |③---|
86
口口口口 |----|
口口口口 |----|
口口口口 |----|
口口口口 |----|
87
口口口口 |①---|
口③口口 |②---|
①口④口 |③---|
口②口口 |④---|
88
口④①口 |①---|
④口⑤② |②---|
口⑤口③ |③-④-|
口口③口 |⑤---|


不确定度: 0

最終更新:2012年11月08日 18:21