HEAVENLY MOON
Tatsh

EXTREME

Level: 10
BPM: 185
Notes: 886

1
口口口口 |----|
口口口口 |----|
口口口口 |----|
口口口口 |----|
2
⑧口口⑥ |①-②-|
口①③口 |③-④-|
口⑤⑦口 |⑤-⑥-|
④口口② |⑦-⑧-|
3
口口口口 |①-②-|
口①③口 |③-④-|
口口口口 |----|
④口口② |----|
4
⑧口口⑥ |①-②-|
口①③口 |③-④-|
口⑤⑦口 |⑤-⑥-|
④口口② |⑦-⑧-|
5
口口口口 |①-②-|
口①③口 |③-④-|
口口口口 |----|
④口口② |----|
6
⑧口口⑥ |①-②-|
口①③口 |③-④-|
口⑤⑦口 |⑤-⑥-|
④口口② |⑦-⑧-|
7
口口口口 |①-②-|
口①③口 |③-④-|
口口口口 |----|
④口口② |----|
8
口口③口 |①-②-|
④①⑤④ |③---|
口⑥②口 |④---|
口口口口 |⑤-⑥-|
9
③①口② |①--②|
口②口口 |--③-|
口口①口
口口口口

口口口口
⑤口口⑤
⑧⑨⑩⑪ |④-⑤-|
④⑥⑦④ |⑥-⑦-⑧⑨⑩⑪|
10
口①①口 |①---|
口口②口 |②---|
口口口口 |③---|
口口④③ |④---|
11
③口口② |①-②-|
⑤⑦口① |③-④-|
口口④口 |⑤-⑥-|
⑧⑥口口 |⑦-⑧-|
12
口口口口 |①---|
口口②口 |②---|
①①口口 |③---|
口口④③ |④---|
13
口④③② |①-②-|
⑥口⑤① |③-④-|
口口口口 |⑤-⑥-|
口⑧口⑦ |⑦-⑧-|
14
④⑤口口 |①-②-|
口②口① |③-④-|
⑥③⑦口 |⑤-⑥-|
口口口口 |⑦---|
15
③④口① |①-②-|
⑦⑥口口 |③-④-|
⑤②口口 |⑤-⑥-|
口⑧口口 |⑦-⑧-|
16
③④口⑧ |①-②-|
口⑥口口 |③-④-|
⑤②⑦① |⑤-⑥-|
口口口口 |⑦-⑧-|
17
②③①口 |①-②-|
⑤⑥口口 |③-④-|
⑧①口口 |⑤-⑥-|
⑦④口口 |⑦-⑧-|
18
口口口口 |①---|
口口①① |----|
口口口口 |----|
口口口口 |----|
19
口①④口 |①②--|
口②③④ |③--④|
④②③④ |----|
口④④口 |----|
20
①⑧④⑤ |①--②|
口②⑥口 |③-④-|
口⑧④⑤ |⑤--⑥|
口③⑦① |⑦-⑧-|
21
①⑧④⑤ |①--②|
口②⑥口 |③-④-|
①⑧④⑤ |⑤--⑥|
口③⑦口 |⑦-⑧-|
22
①⑧④⑤ |①--②|
口②⑥口 |③-④-|
①⑧④⑤ |⑤--⑥|
口③⑦口 |⑦-⑧-|
23
①⑦④⑤ |①--②|
⑧②⑥口 |③-④-|
①⑦④⑤ |⑤-⑥-|
⑧③⑥口 |⑦-⑧-|
24
①⑧④⑤ |①--②|
口②⑥口 |③-④-|
口⑧④⑤ |⑤--⑥|
口③⑦① |⑦-⑧-|
25
①⑧④⑤ |①--②|
口②⑥口 |③-④-|
①⑧④⑤ |⑤--⑥|
口③⑦口 |⑦-⑧-|
26
⑧口③⑨ |①-②-|
①①④④ |③---|
⑥口③⑦ |④-⑤-|
②②⑤⑤ |⑥⑦⑧⑨|
27
⑤口③⑥ |①-②-|
①①④④ |③---|
⑦口③⑧ |④---|
②②口口 |⑤⑥⑦⑧|
28
口口③⑤ |①---|
①口⑤③ |②-③-|
⑤①口口 |④---|
②④①① |⑤---|
29
口口③⑤ |①---|
口口⑤③ |②-③-|
⑤①口口 |④---|
②④①① |⑤---|
30
口口③⑤ |①---|
口口⑤③ |②-③-|
⑤①口口 |④---|
②④①① |⑤---|
31
口③④⑧ |①-②-|
②⑦⑦③ |③-④-|
⑥①⑥⑤ |⑤-⑥-|
口⑤②① |⑦-⑧-|
32
口口③⑤ |①---|
①口⑤③ |②-③-|
⑤①口口 |④---|
②④①① |⑤---|
33
口口②口 |①---|
④口③② |--②-|
口①口③ |----|
口口①① |③-④-|
34
⑥口口① |①---|
口④口口 |②---|
⑤①①口 |③-④-|
②③口口 |⑤-⑥-|
35
口⑪①口 |①-②-|
⑨口⑩② |③-④-|
⑦①⑧③ |⑤⑥⑦⑧|
⑤口⑥④ |⑨⑩⑪-|
36
口口口口 |----|
口口口口 |----|
口口口口 |----|
口口口口 |----|
37
⑤⑤口③ |①---|
口①口① |②-③-|
①口①口 |--④-|
④口②② |⑤---|
38
⑤⑤口③ |①---|
口①口① |②-③-|
①口①口 |--④-|
④口②② |⑤---|
39
⑤⑤口③ |①---|
口①口① |②-③-|
①口①口 |--④-|
④口②② |⑤---|
40
⑥⑦口④ |①-②-|
口①口① |③-④-|
①⑥①② |--⑤-|
⑤口口③ |⑥-⑦-|
41
⑤⑤口③ |①---|
口①口① |②-③-|
①口①口 |--④-|
④口②② |⑤---|
42
⑤⑤口③ |①---|
口①口① |②-③-|
①口①口 |--④-|
④口②② |⑤---|
43
④口②② |①---|
口①口① |②-③-|
①口①口 |--④-|
⑤⑤口③ |⑤---|
44
口⑤口口 |①-②-|
②④①③ |③-④-|
③①④② |--⑤-|
⑥口口⑥ |⑥---|
45
①③③① |①---|
②口口② |--②-|
③口口③ |----|
口②②口 |③---|
46
口口④口 |①---|
口②②口 |--②-|
口①①口 |--③-|
口③口口 |④---|
47
口③口③ |①---|
口口③④ |②---|
②①口口 |③---|
①口①口 |④---|
48
口⑦口口 |①-②-|
⑨③④口 |③-④-|
②⑧口② |⑤-⑥-|
⑤①①⑥ |⑦-⑧⑨|
49
①⑧②⑦ |①-②-|
口④口⑤ |③-④-|
②口③⑧ |⑤-⑥-|
口⑤口⑥ |⑦-⑧-|
50
⑤口⑥口 |①-②-|
③⑧②口 |③-④-|
⑥①⑦口 |⑤-⑥-|
④口③口 |⑦-⑧-|
51
口④口③ |①-②-|
⑦口⑥① |③-④-|
口⑤口④ |⑤-⑥-|
⑧①⑦② |⑦-⑧-|
52
⑤⑥③④ |①-②-|
⑥②⑦③ |③-④-|
①⑦②⑧ |⑤-⑥-|
口①⑧口 |⑦-⑧-|
53
④口④口 |①-②-|
口②口② |③-④-|
③口③口
口①口①

口⑥口⑥
⑤口⑦口
口⑧口口 |⑤-⑥-|
⑤⑨口⑩ |⑦⑧⑨⑩|
54
口口口口 |①---|
口口口① |----|
口口口口 |----|
口口口口 |----|
55
①口②③ |①-②-|
①⑨②⑦ |③-④-|
⑤③⑥④ |⑤-⑥⑦|
⑧③⑧④ |⑧-⑨-|
56
①⑧②口 |①-②-|
①⑦②⑨ |③-④-|
⑥③⑤④ |⑤-⑥⑦|
⑨③⑥④ |⑧-⑨-|
57
①⑧②⑤ |①-②-|
①⑨②⑦ |③-④-|
⑤③⑥④ |⑤-⑥⑦|
口③⑧④ |⑧-⑨-|
58
①⑨②⑧ |①-②-|
①⑪②⑩ |③-④-|
口③⑦④ |⑤-⑥⑦|
⑤③⑥④ |⑧⑨⑩⑪|
59
①口②口 |①-②-|
①⑨②⑦ |③-④-|
⑤③⑥④ |⑤-⑥⑦|
⑧③⑧④ |⑧-⑨-|
60
①⑨②⑧ |①-②-|
①⑪②⑩ |③-④-|
⑤③⑦④ |⑤-⑥⑦|
口③⑥④ |⑧⑨⑩⑪|
61
①⑧②⑥ |①-②-|
①⑨②⑦ |③-④-|
⑤③⑥④ |⑤-⑥⑦|
⑨③⑤④ |⑧-⑨-|
62
②⑭⑥⑩ |①②③④|
①⑬⑤⑨ |⑤⑥⑦⑧|
⑯④⑫⑧ |⑨⑩⑪⑫|
⑮③⑪⑦ |⑬⑭⑮⑯|
63
①⑦③口 |①-②-|
①口⑤⑤ |③-④-|
⑦②⑧③ |⑤-⑥-|
口⑥口④ |⑦-⑧-|
64
①口③① |①-②-|
口③口口 |③-④-|
口口口口
④口②口

⑧⑥口⑧
⑤口⑦⑤
口⑥口⑦ |⑤-⑥-|
口口⑨口 |⑦-⑧⑨|
65
⑦⑤口口 |①-②-|
⑤⑥口⑧ |③-④-|
④口②口 |⑤-⑥-|
③③⑦① |⑦-⑧-|
66
口口口口 |①-②-|
口口③口 |③---|
③②口①
口口口①

口⑦口⑤
⑥口口口
口口④⑨ |④-⑤-|
④⑤⑧口 |⑥⑦⑧⑨|
67
①⑦③口 |①-②-|
口口⑤③ |③-④-|
⑦②⑧口 |⑤-⑥-|
口⑥口④ |⑦-⑧-|
68
口口口① |①-②-|
口③口口 |③-④-|
口口口口
④口②③

口⑦口口
⑤口⑧⑥
口⑨口口 |⑤-⑥-|
口口⑩口 |⑦⑧⑨⑩|
69
①⑧③① |①-②-|
⑤②⑨口 |③-④-|
⑦口⑤③ |⑤-⑥-|
④⑥⑦④ |⑦-⑧⑨|
70
③口⑥口 |①②③④|
⑦口口② |⑤⑥⑦⑧|
口①口④
⑤口口⑧

口⑮口⑫
口⑬口⑯
⑪口⑩口 |⑨⑩⑪⑫|
口⑨⑭口 |⑬⑭⑮⑯|
71
口④④口 |----|
①口①⑤ |①---|
②①口① |②-③-|
口③口② |④-⑤-|
72
①⑥口① |①-②-|
口②⑧口 |③-④-|
⑦⑧③⑤ |⑤-⑥-|
③口⑤④ |⑦-⑧-|
73
④④①① |①---|
②③口口 |②-③-|
口口②⑦ |④-⑤-|
⑥⑥口⑤ |⑥-⑦-|
74
④④⑥口 |①---|
②③口口 |②-③-|
①①②口 |④---|
⑤口⑦⑤ |⑤⑥⑦-|
75
③口口口 |----|
口②①① |①---|
①①⑤口 |②-③-|
口②④④ |④-⑤-|
76
口③口① |①-②-|
口口②口 |③-④-|
④③口①
口口口口

口口⑥⑧
⑦⑤口口
口口口口 |⑤-⑥-|
⑦⑤口口 |⑦-⑧-|
77
口③⑥口 |①--②|
口口口① |--③-|
④②⑤口 |④--⑤|
口口口① |--⑥-|
78
口②口口 |①--②|
口⑧④① |--③-|
口③⑦口 |④-⑤-|
⑥①口⑤ |⑥-⑦⑧|
79
①②③④ |①-②-|
②口④口 |③-④-|
⑤⑥⑦⑧ |⑤-⑥-|
⑥口⑧口 |⑦-⑧-|
80
①②③④ |①-②-|
②口④口 |③-④-|
⑤⑥⑦⑧ |⑤-⑥-|
⑥口⑧口 |⑦-⑧-|
81
口②口④ |①-②-|
②①④③ |③-④-|
口⑥口⑧ |⑤-⑥-|
⑥⑤⑧⑦ |⑦-⑧-|
82
口②口④ |①-②-|
②①④③ |③-④-|
口⑥口⑧ |⑤-⑥-|
⑥⑤⑧⑦ |⑦-⑧-|
83
①口②口 |①---|
口口口口 |--②-|
②口③口 |----|
口口口口 |③---|
84
口①口② |----|
①口②口 |----|
口③口④ |----|
③口④口 |①②③④|
85
①口③口 |①---|
口③口② |--②-|
③口②口 |----|
口②口① |③---|
86
口口口口 |----|
口口口口 |----|
口口口口 |----|
口口口口 |----|
87
①口口② |①---|
口①②口 |②---|
口③④口 |③---|
③口口④ |④---|
88
⑤口口⑤ |①---|
①①②② |②---|
④⑤⑤④ |③-④-|
口③③口 |⑤---|


不确定度: 0

最終更新:2012年11月08日 18:21