FRIENDSHIP
PON

BASIC

Level: 4
BPM: 208
Notes: 221

1
口口口口 |----|
口口口口 |----|
口口口口 |----|
口口口口 |----|
2
口口口口 |----|
口口口口 |----|
口口口口 |----|
口口口口 |----|
3
口口口口 |----|
口口口口 |----|
口口口口 |----|
口口口口 |----|
4
口口口口 |----|
口口口口 |----|
口口口口 |----|
口口口口 |----|
5
口口口口 |----|
口口口口 |----|
口口口口 |----|
口口口口 |----|
6
口口口口 |①---|
口口口口 |----|
①①①① |----|
口口口口 |----|
7
口口口口 |----|
口口口口 |----|
口口口口 |----|
口口口口 |----|
8
口口口口 |①---|
①①①① |----|
口口口口 |----|
口口口口 |----|
9
口口口口 |----|
口口口口 |----|
口口口口 |----|
口口口口 |----|
10
口口口口 |①---|
口①②口 |----|
口口口口 |②---|
口口口口 |----|
11
口口口口 |①---|
口口口口 |----|
①口口② |②---|
口口口口 |----|
12
口口口口 |①---|
口口口口 |----|
口①①口 |----|
口口口口 |----|
13
口口口口 |----|
①口口① |----|
口口口口 |①---|
口口口口 |----|
14
口口口口 |①---|
口①②口 |②---|
口③④口 |③---|
口口口口 |④---|
15
口口口口 |①---|
口口口口 |----|
口口口口 |②---|
①②②① |----|
16
口口口口 |①---|
口口口口 |②---|
④③②① |③---|
口口口口 |④---|
17
口①①口 |①---|
口②②口 |----|
口口口口 |②---|
口口口口 |----|
18
口口口口 |①---|
口口口② |--②-|
口③①口 |----|
口口口口 |③---|
19
口②②口 |--①-|
①③③口 |----|
口口口口 |②---|
口口口口 |③---|
20
口口口口 |①---|
口口口口 |----|
口①①口 |----|
口口口口 |----|
21
口口口口 |----|
口口口口 |----|
口口口口 |----|
口口口口 |----|
22
口口口口 |①---|
口口口口 |----|
①①①① |----|
口口口口 |----|
23
口口口口 |①---|
①①①① |----|
口口口口 |----|
口口口口 |----|
24
口①②口 |①---|
①口口② |--②-|
口③③口 |----|
口口口口 |③---|
25
口口口口 |----|
口口口口 |----|
①口口① |①---|
口口口口 |----|
26
口口口口 |①---|
口①②口 |----|
口口口口 |②---|
口口口口 |----|
27
口口口口 |①---|
口口口口 |----|
①口口② |②---|
口口口口 |----|
28
口口口口 |①---|
口口口口 |----|
口①①口 |----|
口口口口 |----|
29
口口口口 |----|
①口口① |----|
口口口口 |①---|
口口口口 |----|
30
口口口口 |①---|
口①②口 |②---|
口③④口 |③---|
口口口口 |④---|
31
口口口口 |①---|
口口口口 |----|
口口口口 |②---|
①②②① |----|
32
口口口口 |①---|
口口口口 |②---|
④③②① |③---|
口口口口 |④---|
33
口①①口 |①---|
口②②口 |----|
口口口口 |②---|
口口口口 |----|
34
口口③口 |①---|
口口口② |--②-|
口口①口 |----|
口口口口 |③---|
35
口①口口 |①---|
②口口口 |--②-|
口③口口 |----|
口口口口 |③---|
36
口口口口 |①---|
口①①口 |----|
口口口口 |----|
口口口口 |----|
37
口口口口 |----|
口口口口 |----|
口口口口 |----|
口口口口 |----|
38
口口口口 |----|
口口口口 |----|
口口口口 |----|
口口口口 |----|
39
口口口口 |----|
口口口口 |----|
口口口口 |----|
口口口口 |----|
40
口口①② |①---|
口口口③ |②---|
口口口④ |③---|
口口口口 |④---|
41
口口口口 |①---|
口口口口 |②---|
口口口口 |----|
口口②① |----|
42
②①口口 |①---|
③口口口 |②---|
④口口口 |③---|
口口口口 |④---|
43
口口口口 |①---|
口口口口 |②---|
口口口口 |----|
①②口口 |----|
44
口口口口 |①---|
口④③口 |②---|
口②①口 |③---|
口口口口 |④---|
45
口①①口 |①---|
口口口口 |----|
口口口口 |----|
口口口口 |----|
46
口口口口 |①---|
口①①口 |--②-|
口②②口 |----|
口口口口 |----|
47
口口口口 |----|
口口口口 |----|
口口口口 |----|
口口口口 |----|
48
口口口口 |①---|
③口口④ |②---|
①口口② |③---|
口口口口 |④---|
49
①口口② |①---|
口口口口 |②---|
口口口口 |----|
口口口口 |----|
50
口③③口 |①---|
口②②口 |--②-|
口①①口 |----|
口口口口 |③---|
51
口口口口 |----|
口口口口 |----|
口口口口 |----|
口口口口 |----|
52
口口口口 |①---|
①口口① |----|
口口口口 |----|
口口口口 |----|
53
口口口口 |①---|
口口口口 |----|
口②②口 |②---|
口①①口 |----|
54
口口口口 |①---|
口①①口 |----|
口口口口 |----|
口口口口 |----|
55
①①①① |①---|
口口口口 |----|
口口口口 |----|
口口口口 |----|
56
口口口口 |----|
口口口口 |----|
口口口口 |①---|
口①口口 |----|
57
口口口口 |①---|
口口口口 |----|
①①口口 |②---|
口口②口 |----|
58
口口口口 |①---|
口口口口 |----|
口口①① |----|
口口口口 |----|
59
口①②口 |①---|
①口口② |--②-|
口③③口 |----|
口口口口 |③---|
60
口口口口 |----|
口口口口 |----|
①口口① |①---|
口口口口 |----|
61
口口口口 |①---|
口①②口 |----|
口口口口 |②---|
口口口口 |----|
62
口口口口 |①---|
口口口口 |----|
①口口② |②---|
口口口口 |----|
63
口口口口 |①---|
口口口口 |----|
口①①口 |----|
口口口口 |----|
64
口口口口 |----|
①口口① |----|
口口口口 |①---|
口口口口 |----|
65
口口口口 |①---|
口①②口 |②---|
口③④口 |③---|
口口口口 |④---|
66
口口口口 |①---|
口口口口 |----|
口口口口 |②---|
①②②① |----|
67
口口口口 |①---|
口口口口 |②---|
④③②① |③---|
口口口口 |④---|
68
口①①口 |①---|
口②②口 |----|
口口口口 |②---|
口口口口 |----|
69
口口③口 |①---|
口口口② |--②-|
口口①口 |----|
口口口口 |③---|
70
口①口口 |①---|
②口口口 |--②-|
口③口口 |----|
口口口口 |③---|
71
口口口口 |①---|
口①①口 |----|
口口口口 |----|
口口口口 |----|
72
口口口口 |①---|
口口口口 |----|
口口口口 |----|
①口口① |----|
73
口口口口 |①---|
①口口口 |----|
①口口口 |----|
口口口口 |----|
74
口口口口 |①---|
口口口① |----|
口口口① |----|
口口口口 |----|
75
口口口口 |①---|
口①①口 |----|
口①①口 |----|
口口口口 |----|
76
①②④③ |①---|
口口口口 |②---|
口口口口 |③---|
口口口口 |④---|
77
口口口口 |①---|
③口口④ |②---|
①口口② |③---|
口口口口 |④---|
78
①口口② |①---|
口口口口 |②---|
口口口口 |----|
口口口口 |----|
79
口③③口 |①---|
口②②口 |--②-|
口①①口 |----|
口口口口 |③---|
80
②口口① |----|
口口③口 |①---|
口口口口 |②---|
口口口口 |③---|
81
口口口口 |①---|
①口口① |----|
口口口口 |----|
口口口口 |----|
82
口口口口 |①---|
口口口口 |----|
口②②口 |②---|
口①①口 |----|
83
口口口口 |①---|
①①①① |----|
口口口口 |----|
口口口口 |----|


不确定度: 0

最終更新:2012年11月08日 18:21