CAPTIVE
フルーティー

EXTREME

Level: 10
BPM: 160
Notes: 624

1
口口口口 |----|
口口口口 |----|
口口口口 |----|
口口口口 |----|
2
①②③④ |①②③④|
⑨⑧⑦⑥ |⑤---|
口⑩⑩口 |⑥⑦⑧⑨|
口⑤⑤口 |⑩---|
3
②④②④ |①-②-|
口口口口 |③-④-|
口口口口
①③①③

口口口口
口⑤⑤口
口⑥⑦口 |⑤--⑥|
⑧口口口 |⑦-⑧-|
4
①⑦②⑤ |①-②-|
③口口口 |③-④-|
⑤口口口 |⑤---|
⑥④⑥① |⑥-⑦-|
5
①口口⑤ |①-②-|
③口⑥口 |③-④-|
⑤④口口 |⑤-⑥-|
⑦②口口 |⑦---|
6
①⑧②⑤ |①-②-|
③口⑦③ |③-④-|
⑤④口口 |⑤-⑥-|
⑦口⑥口 |⑦-⑧-|
7
①口口口 |①---|
②口口口 |②---|
③口口口 |③---|
④口口口 |④---|
8
①①口① |①---|
②口②② |②---|
③③口③ |③---|
④口④④ |④---|
9
①②口① |①---|
②⑥⑦口 |②-③-|
④口③口 |④---|
⑤口口口 |⑤-⑥⑦|
10
①口口口 |①---|
②口口① |②-③④|
⑤③④⑤ |⑤---|
⑥⑦⑧口 |⑥-⑦⑧|
11
①⑧⑤② |①--②|
③口口口 |③-④-|
⑤④口⑥ |⑤--⑥|
⑦口口① |⑦-⑧-|
12
①口口口 |①-②-|
③口①口 |③---|
④口口口 |④---|
⑤②口口 |⑤---|
13
①口口口 |①---|
②口口口 |②---|
③口口口 |③---|
④口口口 |④---|
14
①口口口 |①---|
②口口口 |②---|
③口口口 |③---|
④口口口 |④---|
15
①⑤口② |①-②-|
口③口口 |③④-⑤|
口口④口
口①①口

口口口口
口口⑨⑦
⑥⑨口口 |-⑥⑦-|
口⑧⑧口 |⑧-⑨-|
16
①口①① |①-②-|
③②口口 |③-④-|
口口③口
口口口④

口⑤口⑧
口口口⑥
⑤口口口 |⑤-⑥-|
⑦口口口 |⑦-⑧-|
17
①口口口 |①-②-|
③①④口 |③-④-|
口口②口
口③口口

口口口口
口⑧口⑧
⑤⑦口⑦ |⑤-⑥-|
⑦口⑥⑥ |⑦-⑧-|
18
①③①① |①-②-|
③⑧④口 |③-④-|
⑤⑤⑦口 |⑤-⑥-|
⑦②口⑥ |⑦-⑧-|
19
①⑧②⑥ |①-②-|
③⑧⑦⑥ |③-④-|
⑤③⑦口 |⑤-⑥-|
⑦口④口 |⑦-⑧-|
20
①⑥①④ |①-②-|
③口⑧口 |③-④-|
⑤口口③ |⑤-⑥-|
⑦②口口 |⑦-⑧-|
21
①口②② |①---|
②③口③ |②---|
③④④④ |③---|
④①口① |④---|
22
①口口口 |①---|
②口口口 |②---|
③口口口 |③---|
④口①口 |④---|
23
①口口口 |①-②-|
口口口④ |③-④-|
③口④②
口③②①

口⑦⑧⑥
⑤⑨⑥口
口⑤口⑩ |⑤-⑥⑦|
口口口口 |⑧-⑨⑩|
24
①⑦口⑧ |①-②-|
③口⑥② |③-④-|
⑤口③口 |⑤-⑥-|
⑦④①⑤ |⑦-⑧-|
25
①口③口 |①-②-|
③口口② |③-④-|
口①④口
口口口口

口口口口
口⑧口⑧
⑤⑦口⑦ |⑤-⑥-|
⑦口⑥⑥ |⑦-⑧-|
26
①④①① |①-②-|
③口⑥口 |③-④-|
⑤⑦③口 |⑤-⑥-|
⑦②口⑧ |⑦-⑧-|
27
①⑧③口 |①-②-|
③④口⑥ |③-④-|
⑤⑧⑦② |⑤-⑥-|
⑦①⑦⑥ |⑦-⑧-|
28
①⑥①④ |①-②-|
③口⑧口 |③-④-|
⑤口口③ |⑤-⑥-|
⑦②口口 |⑦-⑧-|
29
①口②② |①---|
②③口③ |②---|
③④④④ |③---|
④①口① |④---|
30
①口口口 |①---|
②口口口 |②---|
③口口口 |③---|
④口①口 |④---|
31
①⑥口⑤ |①---|
②口③④ |②--③|
④口②② |④-⑤-|
⑥⑦①① |⑥-⑦-|
32
①口口口 |①---|
②②口② |②---|
③③③③ |③---|
④口④① |④---|
33
①②③① |①---|
②③⑤④ |②---|
③口④口 |③---|
④口口口 |④-⑤-|
34
①口⑦② |①---|
②口口口 |②-③-|
④⑤⑤口 |④-⑤-|
⑥③口① |⑥-⑦-|
35
①口口口 |①---|
②口①① |②---|
口口口口
口口口口

口⑤口口
口口⑥口
③口口口 |③-④-|
⑤口口④ |⑤-⑥-|
36
①口②② |①---|
②③口③ |②---|
③①④④ |③---|
④口口口 |④---|
37
①②③③ |①---|
②口②口 |②---|
③④口④ |③---|
④①口① |④---|
38
⑨⑧⑦⑥ |①②③④|
①②③④ |⑤---|
口⑩⑩口 |⑥⑦⑧⑨|
口⑤⑤口 |⑩---|
39
口口口口 |①-②-|
①③③① |③-④-|
口口口口
②④④②

口⑤⑤口
⑧口口⑦
口⑥口口 |⑤--⑥|
口口口口 |⑦-⑧-|
40
④⑥⑥① |①-②-|
⑦⑤②⑦ |③-④-|
④⑤②① |⑤---|
①③⑤⑥ |⑥-⑦-|
41
⑤⑥⑥② |①-②-|
口④③口 |③-④-|
⑤④③② |⑤-⑥-|
①③⑤⑦ |⑦---|
42
④⑦口② |①-②-|
口⑤③口 |③---|
口口⑥口 |④-⑤-|
①③④⑥ |⑥-⑦-|
43
口口⑤口 |①---|
口⑥口口 |②---|
口口口口 |③---|
①②③④ |④-⑤⑥|
44
②②口口 |①---|
口口③③ |②---|
④④①口 |③---|
①②③④ |④---|
45
④口①口 |①-②-|
口②口口 |③-④-|
口口③口 |⑤---|
①③⑤⑥ |⑥---|
46
口④③② |①-②-|
口口口口 |③-④-|
口口口口
①③口口

⑤口口⑧
⑦⑧口⑥
⑦口⑧⑥ |⑤-⑥-|
⑧口⑤⑦ |⑦-⑧-|
47
④②①口 |--①-|
⑥⑥③⑤ |②-③-|
⑤③口口 |④-⑤-|
口①②④ |⑥---|
48
④⑥⑥① |①-②-|
⑦⑤②⑦ |③-④-|
④⑤②① |⑤---|
①③⑤⑥ |⑥-⑦-|
49
⑤⑥⑥② |①-②-|
口④③口 |③-④-|
⑤④③② |⑤-⑥-|
①③⑤⑦ |⑦---|
50
⑤⑧口② |①-②-|
口⑥③口 |③-④-|
口④⑦口 |⑤-⑥-|
①③⑤⑦ |⑦-⑧-|
51
口口⑤口 |①---|
口⑥口口 |②---|
口口口口 |③---|
①②③④ |④-⑤⑥|
52
②②口口 |①---|
口口③③ |②---|
④④①口 |③---|
①②③④ |④---|
53
口①①口 |①---|
口③②口 |②-③-|
口口⑦⑥ |④---|
①②④⑤ |⑤-⑥⑦|
54
口②口⑥ |①---|
③④⑤口 |②-③④|
口①口口 |⑤---|
①②⑤⑥ |⑥---|
55
口②①⑥ |①--②|
⑤⑧⑦④ |③-④-|
⑤②①④ |⑤-⑥-|
①③⑤⑦ |⑦-⑧-|
56
①口口口 |①-②-|
口口口口 |③---|
口②②口 |④---|
①③④⑤ |⑤---|
57
口口口口 |①---|
口口口口 |②---|
口口口口 |③---|
①②③④ |④---|
58
口口口口 |①---|
口口口口 |②---|
口口口口 |③---|
①②③④ |④---|
59
②⑤③④ |①-②③|
口口口口 |-④⑤-|
③口口⑤
①口口口

口口口口
⑦⑥⑦⑥
口⑨⑨口 |⑥-⑦-|
⑧⑥⑦⑧ |⑧-⑨-|
60
①口①口 |①---|
口口口口 |----|
口口口口 |----|
口口口口 |----|

不確定度: 0

最終更新:2014年12月11日 23:47