dye it white
HaKU

BASIC

Level: 2
BPM: 138
Notes: 210

1
口口口口 |----|
口口口口 |----|
口口口口 |----|
口口口口 |----|
2
①口口② |①---|
口口口口 |----|
口口口口 |②---|
口口口口 |----|
3
口口口口 |①---|
口①①口 |----|
口②②口 |②---|
口口口口 |----|
4
口口口口 |①---|
口口口口 |----|
口口口口 |②---|
①口口② |----|
5
口口口口 |①---|
口②②口 |----|
口①①口 |②---|
口口口口 |----|
6
①口口② |①---|
①口口② |----|
口口口口 |②---|
口口口口 |----|
7
口口口口 |①---|
口①①口 |----|
口②②口 |②---|
口口口口 |----|
8
口口口口 |①---|
口口口口 |----|
①口口② |②---|
①口口② |----|
9
口口口口 |①---|
口②②口 |----|
口①①口 |②---|
口口口口 |----|
10
①口口② |①---|
①口口② |----|
口口口口 |②---|
口口口口 |----|
11
口口口口 |①---|
口①①口 |----|
口②②口 |②---|
口口口口 |----|
12
口口口口 |①---|
口口口口 |----|
①口口② |②---|
①口口② |----|
13
口口口口 |①---|
口②②口 |----|
口①①口 |②---|
口口口口 |----|
14
①②③④ |①---|
口口口口 |②---|
口口口口 |③---|
口口口口 |④---|
15
口口口口 |①---|
口①①口 |----|
口②②口 |②---|
口口口口 |----|
16
口口口口 |①---|
口口口口 |②---|
口口口口 |③---|
①②③④ |④---|
17
口口口口 |①---|
口②②口 |----|
口①①口 |②---|
口口口口 |----|
18
①②③④ |①---|
口口口口 |②---|
口口口口 |③---|
口口口口 |④---|
19
口口口口 |①---|
口①①口 |----|
口②②口 |②---|
口口口口 |----|
20
口口口口 |①---|
口口口口 |②---|
口口口口 |③---|
①②③④ |④---|
21
口口口口 |①---|
口②②口 |----|
口①①口 |②---|
口口口口 |----|
22
口口口口 |①---|
口②口口 |----|
①口口口 |②---|
口口口口 |----|
23
口口①① |①---|
口口②② |----|
口口口口 |②---|
口口口口 |----|
24
口口口口 |①---|
口口②口 |----|
口口口① |②---|
口口口口 |----|
25
①①口口 |①---|
②②口口 |----|
口口口口 |②---|
口口口口 |----|
26
口口口口 |①---|
口③③口 |--②-|
口②②口 |----|
口①①口 |③---|
27
②①①③ |--①-|
口口口口 |----|
口口口口 |②---|
口口口口 |③---|
28
口口口口 |----|
①口口② |----|
口口口口 |①---|
口口口口 |②---|
29
口口口口 |----|
口③口口 |①---|
口口②口 |②---|
口①口口 |③---|
30
口口①口 |①---|
口口口口 |----|
口口口口 |----|
口口口口 |----|
31
口口口口 |①---|
口①①口 |----|
口②②口 |②---|
口口口口 |----|
32
口口口口 |①---|
口口口口 |②---|
口口口口 |③---|
①②③④ |④---|
33
口口口口 |①---|
口②②口 |----|
口①①口 |②---|
口口口口 |----|
34
①②口口 |①---|
口口③③ |②---|
口口口口 |③---|
口口口口 |----|
35
口口口口 |①---|
口口口口 |②---|
口口②① |③---|
③③口口 |----|
36
口口口口 |①---|
口口口口 |②---|
③③口口 |③---|
口口②① |----|
37
②口口② |①---|
口①①口 |----|
口口口口 |②---|
口口口口 |----|
38
口口③③ |①---|
①②口口 |②---|
口口口口 |③---|
口口口口 |----|
39
口口口口 |①---|
③③口口 |②---|
口口②① |③---|
口口口口 |----|
40
口口口口 |①---|
口口口口 |②---|
口口③③ |③---|
①②口口 |----|
41
口口口口 |----|
口口口口 |----|
口①①口 |①---|
口口口口 |----|
42
①②口口 |①---|
口口③③ |②---|
口口口口 |③---|
口口口口 |----|
43
口口口口 |①---|
口口口口 |②---|
口口②① |③---|
③③口口 |----|
44
口口口口 |①---|
口口口口 |②---|
③③口口 |③---|
口口②① |----|
45
口口口口 |①---|
口①①口 |----|
口②②口 |②---|
口口口口 |----|
46
①②口口 |①---|
口口③③ |②---|
口口口口 |③---|
口口口口 |----|
47
口口口口 |①---|
③③口口 |②---|
口口②① |③---|
口口口口 |----|
48
口口口口 |①---|
口口口口 |②---|
口口③③ |③---|
①②口口 |----|
49
口口口口 |①---|
②口口② |----|
口口口口 |②---|
口①①口 |----|
50
①②③④ |①---|
口口口口 |②---|
口口口口 |③---|
口口口口 |④---|
51
口口口口 |①---|
口①①口 |----|
口②②口 |②---|
口口口口 |----|
52
口口口口 |①---|
口口口口 |②---|
口口口口 |③---|
①②③④ |④---|
53
口口口口 |①---|
口②②口 |----|
口①①口 |②---|
口口口口 |----|
54
①②③④ |①---|
口口口口 |②---|
口口口口 |③---|
口口口口 |④---|
55
口口口口 |①---|
口①①口 |----|
口②②口 |②---|
口口口口 |----|
56
口口口口 |①---|
口口口口 |②---|
口口口口 |③---|
①②③④ |④---|
57
口口口口 |①---|
口②②口 |----|
口①①口 |②---|
口口口口 |----|

不確定度: 0

最終更新:2014年05月15日 11:20