dye it white
HaKU

ADVANCED

Level: 6
BPM: 138
Notes: 435

1
口口口口 |----|
口口口口 |----|
口口口口 |----|
口口口口 |----|
2
口口口口 |①---|
口口口口 |----|
①口口② |②---|
口①②口 |----|
3
口口口口 |①---|
口②②口 |----|
口①①口 |②---|
口口口口 |----|
4
口①②口 |①---|
①口口② |----|
口口口口 |②---|
口口口口 |----|
5
口口口口 |①---|
口①①口 |----|
口②②口 |②---|
口口口口 |----|
6
口口口口 |①---|
口口口口 |----|
①口口② |②---|
口①②口 |----|
7
口口口口 |①---|
口②②口 |----|
口①①口 |②---|
口口口口 |----|
8
口①②口 |①---|
①口口② |----|
口口口口 |②---|
口口口口 |----|
9
口口口口 |①---|
口①①口 |----|
口②②口 |②---|
口口口口 |----|
10
口口口口 |①---|
口口口口 |----|
①口口② |②---|
口①②口 |----|
11
口口口口 |①---|
口②②口 |----|
口①①口 |②---|
口口口口 |----|
12
口①②口 |①---|
①口口② |----|
口口口口 |②---|
口口口口 |----|
13
口口口口 |①---|
口①①口 |----|
口②②口 |②---|
口口口口 |----|
14
⑦口口⑧ |①-②-|
⑤口口⑥ |③-④-|
③口口④ |⑤-⑥-|
①口口② |⑦-⑧-|
15
口①⑤口 |①-②-|
口⑥②口 |③-④-|
口③⑦口 |⑤-⑥-|
口⑧④口 |⑦-⑧-|
16
①口口② |①-②-|
③口口④ |③-④-|
⑤口口⑥ |⑤-⑥-|
⑦口口⑧ |⑦-⑧-|
17
口⑧④口 |①-②-|
口③⑦口 |③-④-|
口⑥②口 |⑤-⑥-|
口①⑤口 |⑦-⑧-|
18
⑦口口⑧ |①-②-|
⑤口口⑥ |③-④-|
③口口④ |⑤-⑥-|
①口口② |⑦-⑧-|
19
口①⑤口 |①-②-|
口⑥②口 |③-④-|
口③⑦口 |⑤-⑥-|
口⑧④口 |⑦-⑧-|
20
①口口② |①-②-|
③口口④ |③-④-|
⑤口口⑥ |⑤-⑥-|
⑦口口⑧ |⑦-⑧-|
21
口口④口 |①-②-|
口③⑦口 |③-④-|
口⑥②口 |⑤-⑥-|
⑧①⑤口 |⑦-⑧-|
22
口口②② |①---|
③③口口 |②-③-|
口口①①
口口口口

口口⑤口
口口口口
口口口口 |--④-|
④④口口 |--⑤-|
23
口①口口 |①-②③|
口口②口 |-④⑤-|
口③④口 |----|
口⑤口⑥ |--⑥-|
24
口口口口 |①-②-|
口④①口 |--③-|
口②⑤口 |④-⑤-|
③⑥口口 |--⑥-|
25
口口口① |①-②-|
②口口口 |③-④-|
口口口③ |----|
④口口口 |----|
26
口口口口 |①---|
②③③② |--②-|
③①①③ |----|
①②②① |③---|
27
①口口① |--①-|
口口口口 |----|
口①①口
口口口口

口口口口
②②口口
④④口口 |②-③-|
口口③③ |④---|
28
口口口口 |----|
口口①① |----|
口口③③ |①-②-|
②②口口 |③---|
29
口①口④ |--①-|
口⑤②口 |②-③-|
③口⑥口 |④-⑤-|
⑦口口口 |⑥-⑦-|
30
口口口口 |①---|
口口口口 |----|
口口口口 |----|
口口口① |----|
31
口①⑤口 |①-②-|
口⑥②口 |③-④-|
口③⑦口 |⑤-⑥-|
口⑧④口 |⑦-⑧-|
32
①口口② |①-②-|
③口口④ |③-④-|
⑤口口⑥ |⑤-⑥-|
⑦口口⑧ |⑦-⑧-|
33
①口②② |①②-③|
③口④④ |④-⑤⑥|
⑤口⑥⑥
口口口口

⑨口口⑨
口口口口
口口口口 |-⑦⑧-|
⑦口⑧⑧ |--⑨-|
34
⑥⑤⑤⑥ |--①-|
①①②② |②-③-|
④④③③ |④-⑤-|
口口口口 |--⑥-|
35
⑥口口口 |--①-|
②②①① |②-③-|
③③④④ |④-⑤-|
口⑤⑤口 |--⑥-|
36
口口口② |①-②-|
口口口口 |③-④-|
口口口口
③④④①

口口口口
⑤⑤⑥⑥
口口口口 |⑤-⑥-|
⑦口口⑦ |--⑦-|
37
④①①口 |①-②-|
③口口口 |③-④-|
②②口口
口口口口

口⑧⑧⑦
口口口⑥
口口⑤⑤ |⑤-⑥-|
口口口口 |⑦-⑧-|
38
口⑤⑤⑥ |--①-|
①①②② |②-③-|
④④③③ |④-⑤-|
口口口口 |--⑥-|
39
①口口⑦ |①-②-|
③③②② |③-④-|
④④⑤⑤ |⑤-⑥-|
口⑥⑥口 |--⑦-|
40
②⑤⑥口 |①-②-|
口⑤⑥口 |③-④-|
口④④口 |⑤-⑥-|
①口口③ |----|
41
口口口口 |----|
口①①口 |----|
口①①口 |①---|
口口口口 |----|
42
口⑥⑥⑦ |①-②-|
②②③③ |③-④-|
⑤⑤④④ |⑤-⑥-|
口①①口 |--⑦-|
43
①口口口 |①-②-|
③③②② |③-④-|
④④口口
口口口口

⑦口口口
口口口口
口口⑤⑤ |⑤-⑥-|
口⑥⑥口 |--⑦-|
44
口口口② |①-②-|
口口口口 |③-④-|
口口口口
③④④①

口口口口
⑤⑤⑥⑥
口口口口 |⑤-⑥-|
⑦口口⑦ |--⑦-|
45
口①①口 |①---|
口②②口 |②---|
口口口口
口口口口

口⑤口口
口口口口
口③③口 |③---|
口④④口 |④-⑤-|
46
口口①口 |①-②-|
②②③③ |③-④-|
口口④④
口口口口

口⑥⑥⑦
口口口口
⑤⑤口口 |⑤-⑥-|
口口口口 |--⑦-|
47
①口口⑦ |①-②-|
③③②② |③-④-|
④④⑤⑤ |⑤-⑥-|
口⑥⑥口 |--⑦-|
48
②口口口 |①-②-|
口口口口 |③-④-|
口④口口
①口口③

口⑥口口
口口⑤口
口口口口 |⑤-⑥-|
口口口⑦ |--⑦-|
49
①⑦⑦口 |①-②-|
口⑥⑥② |③-④-|
③⑤⑤口 |⑤-⑥-|
口口④口 |⑦---|
50
⑦口口⑧ |①-②-|
⑤口口⑥ |③-④-|
③口口④ |⑤-⑥-|
①口口② |⑦-⑧-|
51
口①⑤口 |①-②-|
口⑥②口 |③-④-|
口③⑦口 |⑤-⑥-|
口⑧④口 |⑦-⑧-|
52
①口口② |①-②-|
③口口④ |③-④-|
⑤口口⑥ |⑤-⑥-|
⑦口口⑧ |⑦-⑧-|
53
口⑧④口 |①-②-|
口③⑦口 |③-④-|
口⑥②口 |⑤-⑥-|
口①⑤口 |⑦-⑧-|
54
⑦口口⑧ |①-②-|
⑤口口⑥ |③-④-|
③口口④ |⑤-⑥-|
①口口② |⑦-⑧-|
55
口①⑤口 |①-②-|
口⑥②口 |③-④-|
口③⑦口 |⑤-⑥-|
口⑧④口 |⑦-⑧-|
56
①口口② |①-②-|
③口口④ |③-④-|
⑤口口⑥ |⑤-⑥-|
⑦口口⑧ |⑦-⑧-|
57
口⑧④口 |①-②-|
口③⑦口 |③-④-|
口⑥②口 |⑤-⑥-|
口①⑤口 |⑦-⑧-|

不確定度: 0

最終更新:2014年05月15日 11:20