dye it white
HaKU

EXTREME

Level: 9
BPM: 138
Notes: 618

1
口口口口 |----|
口口口口 |----|
口口口口 |----|
口口口口 |----|
2
口③⑤口 |①-②-|
⑤口口② |③④--|
口⑦⑦① |⑤--⑥|
⑥④⑥口 |--⑦-|
3
①口口⑤ |①-②-|
②口口⑥ |③-④-|
③口口⑦ |⑤-⑥-|
④口口⑧ |⑦-⑧-|
4
口⑤③口 |①-②-|
②⑦⑦⑤ |③④--|
①口口口 |⑤--⑥|
口⑥④⑥ |--⑦-|
5
⑤口口① |①-②-|
⑥口口② |③-④-|
⑦口口③ |⑤-⑥-|
⑧口口④ |⑦-⑧-|
6
⑤口④口 |①②③④|
口①⑧口 |⑤⑥⑦⑧|
口⑦②口
口③口⑥

口口⑯⑫
⑨⑬口口
口口⑭⑩ |⑨⑩⑪⑫|
⑪⑮口口 |⑬⑭⑮⑯|
7
①口口⑤ |①-②-|
②口口⑥ |③-④-|
③口口⑦ |⑤-⑥-|
④口口⑧ |⑦-⑧-|
8
口④⑦口 |①②③④|
口口①⑤ |⑤⑥⑦⑧|
⑥②口口
口⑧③口

⑫⑯口口
⑩口⑬口
口⑭口⑨ |⑨⑩⑪⑫|
口口⑮⑪ |⑬⑭⑮⑯|
9
⑤口口① |①-②-|
⑥口口② |③-④-|
⑦口口③ |⑤-⑥-|
⑧口口④ |⑦-⑧-|
10
⑤口④口 |①②③④|
口①⑧口 |⑤⑥⑦⑧|
口⑦②口
口③口⑥

口口⑯⑫
⑨⑬口口
口口⑭⑩ |⑨⑩⑪⑫|
⑪⑮口口 |⑬⑭⑮⑯|
11
①口口⑤ |①-②-|
②口口⑥ |③-④-|
③口口⑦ |⑤-⑥-|
④口口⑧ |⑦-⑧-|
12
口④⑦口 |①②③④|
口口①⑤ |⑤⑥⑦⑧|
⑥②口口
口⑧③口

⑫⑯口口
⑩口⑬口
口⑭口⑨ |⑨⑩⑪⑫|
口口⑮⑪ |⑬⑭⑮⑯|
13
⑤⑥⑥① |①-②-|
口口口② |③-④-|
口口口③ |⑤-⑥-|
口⑦⑦④ |⑦---|
14
②⑧⑧① |①-②-|
⑤①口③ |③④-⑤|
⑥口①④ |⑥--⑦|
①⑦⑦口 |--⑧-|
15
①口口⑤ |①-②-|
②口口⑥ |③-④-|
③口口⑦ |⑤-⑥-|
④口口⑧ |⑦-⑧-|
16
口⑧⑧② |①-②-|
③口口⑤ |③④-⑤|
④口①⑥ |⑥--⑦|
口⑦⑦口 |--⑧-|
17
⑤口口① |①-②-|
⑥口口② |③-④-|
⑦口口③ |⑤-⑥-|
⑧⑧⑧④ |⑦-⑧-|
18
②①①口 |①-②-|
⑤口口③ |③④-⑤|
口口口④
口口口口

口⑧⑧口
口口口口
⑥口口口 |⑥--⑦|
口⑦⑦口 |--⑧-|
19
①口口⑤ |①-②-|
②口口⑥ |③-④-|
③口口⑦ |⑤-⑥-|
④口口⑧ |⑦-⑧-|
20
口⑧⑧② |①-②-|
③口口⑤ |③④-⑤|
④口①⑥ |⑥--⑦|
口⑦⑦口 |--⑧-|
21
⑤口口① |①-②-|
⑥口口② |③-④-|
⑦口口③ |⑤-⑥-|
口口⑧④ |⑦-⑧-|
22
②②口口 |①---|
口①口口 |②-③-|
口口口口
口③口口

⑤口口④
口⑥口口
口口口口 |--④-|
口口口口 |--⑤⑥|
23
口口口口 |①-②③|
②口口口 |-④⑤-|
④③①口 |----|
口⑤口⑥ |--⑥-|
24
⑤口口口 |①-②③|
②口①⑥ |--④-|
⑧③⑦④ |⑤-⑥⑦|
口口口口 |--⑧-|
25
口①口口 |①-②③|
②口口口 |-④⑤⑥|
口③口④ |----|
⑥口⑤口 |----|
26
②口①口 |①---|
①②①② |--②-|
②①②①
口①口②

口口③③
口口③口
口③口口 |----|
③③口口 |③---|
27
口①口④ |--①-|
①③④① |----|
①②③① |②-③-|
②口①口 |④---|
28
口口①口 |----|
口口②① |----|
③②口口 |①-②-|
口③口口 |③---|
29
②②口口 |--①-|
口口③③ |②-③-|
口口口口
口口①①

口口口口
⑥⑥口口
④④⑤⑤ |④-⑤-|
口口⑦⑦ |⑥-⑦-|
30
②口①① |①-②-|
⑤口口③ |③④-⑤|
口口口④
①①口口

口⑧⑧口
口口口口
⑥口口口 |⑥--⑦|
口⑦⑦口 |--⑧-|
31
①口口⑤ |①-②-|
②口口⑥ |③-④-|
③口口⑦ |⑤-⑥-|
④口口⑧ |⑦-⑧-|
32
口⑧⑧② |①-②-|
③口口⑤ |③④-⑤|
④口①⑥ |⑥--⑦|
口⑦⑦口 |--⑧-|
33
①⑨⑧④ |①②-③|
③⑨④⑧ |④-⑤⑥|
⑤口②⑥ |-⑦⑧-|
⑦口⑥② |--⑨-|
34
②口口口 |①-②-|
口口①④ |③-④-|
②①口口
③口③④

口⑤⑦⑤
口⑥⑦口
口口⑥口 |⑤-⑥-|
口口口口 |--⑦-|
35
口口口② |①-②-|
④口口口 |③-④-|
①①口②
④③口③

⑤口⑤口
口⑦⑥口
口⑥⑧口 |⑤-⑥-|
口口口口 |--⑦⑧|
36
口口口② |①-②③|
③口口口 |④-⑤-|
口口口④
⑤①⑤口

口⑥⑥口
口口口口
⑧口口口 |⑥-⑦-|
口⑦口⑦ |--⑧-|
37
口④③口 |①-②-|
④③②① |③-④-|
口②①口
口口口口

口口口⑤
口⑩口⑨
⑥口口口 |⑤⑥⑦⑧|
口⑧口⑦ |⑨-⑩-|
38
②口②① |--①-|
③口口口 |②-③-|
口口口①
③口口口

口口⑥口
口⑦⑤口
口⑤口口 |④-⑤-|
口④口④ |--⑥⑦|
39
②口口口 |①-②③|
④口口③ |④⑤⑥-|
⑥口①⑤
口口口口

口⑦口⑦
口口口口
口口⑩口 |⑦-⑧-|
⑧口⑧⑨ |--⑨⑩|
40
口③口② |①-②③|
⑤①口④ |④⑤⑥-|
⑦口口⑧ |⑦-⑧-|
⑦口⑥⑧ |----|
41
口①②口 |----|
口①②口 |----|
①口口② |①-②-|
①口口② |----|
42
口③④口 |①-②-|
②⑤⑥② |③④⑤⑥|
口口口口
口①①口

口口口⑧
⑨口口口
口⑦⑩⑧ |⑦-⑧-|
口口口口 |--⑨⑩|
43
口③②口 |①-②③|
口⑤④口 |④⑤⑥⑦|
⑦⑪⑪⑥ |⑧⑨⑩-|
①⑨⑧⑩ |--⑪-|
44
①口口④ |①②③④|
⑨⑤⑧⑩ |⑤⑥⑦⑧|
③⑪⑪② |⑨-⑩-|
⑨⑦⑥⑩ |--⑪-|
45
①口口① |①---|
②口口② |②---|
口口口口
口口口口

口口口⑤
口口口口
③口⑤③ |③---|
④口口④ |④-⑤-|
46
①口口口 |①-②③|
④②③口 |-④⑤⑥|
⑥①口⑤
口口口口

⑧口口口
口口口⑦
口⑧口口 |⑦-⑧-|
⑨⑩口口 |--⑨⑩|
47
⑧⑥④② |①-②③|
⑨⑦⑤③ |④⑤⑥⑦|
口口⑩⑪ |⑧⑨⑩-|
口口①⑪ |--⑪-|
48
⑤口②口 |①②③④|
⑤③⑥⑥ |⑤-⑥-|
①口口口
①口④口

⑩口口⑩
口口口口
口⑦⑧⑨ |⑦⑧⑨-|
口口口口 |--⑩-|
49
口②口口 |①-②-|
②③口口 |③-④-|
口口③④
①口④①

⑤口⑤⑦
口口⑦⑥
⑤⑦口口 |⑤-⑥-|
⑦⑥口⑥ |⑦---|
50
②①口口 |①-②-|
⑤①口③ |③④-⑤|
口口①④
口口①口

口⑧⑧口
口口口口
⑥口口口 |⑥--⑦|
口⑦⑦口 |--⑧-|
51
①口口⑤ |①-②-|
②口口⑥ |③-④-|
③口口⑦ |⑤-⑥-|
④口口⑧ |⑦-⑧-|
52
口⑧⑧② |①-②-|
③口口⑤ |③④-⑤|
④口①⑥ |⑥--⑦|
口⑦⑦口 |--⑧-|
53
⑤口口① |①-②-|
⑥口口② |③-④-|
⑦口口③ |⑤-⑥-|
⑧⑧⑧④ |⑦-⑧-|
54
②①①口 |①-②-|
⑤口口③ |③④-⑤|
口口口④
口口口口

口⑧⑧口
口口口口
⑥口口口 |⑥--⑦|
口⑦⑦口 |--⑧-|
55
①口口⑤ |①-②-|
②口口⑥ |③-④-|
③口口⑦ |⑤-⑥-|
④口口⑧ |⑦-⑧-|
56
口⑧⑧② |①-②-|
③口口⑤ |③④-⑤|
④口①⑥ |⑥--⑦|
口⑦⑦口 |--⑧-|
57
①⑪⑩③ |①②-③|
⑪⑤⑥⑩ |④-⑤⑥|
⑪⑦⑧⑩ |⑦⑧⑨-|
②⑨口④ |⑩-⑪-|

不確定度: 0

最終更新:2014年05月15日 11:20