ファントムヴァイブレーション
キュウソネコカミ

EXTREME

Level: 9
BPM: 192
Notes: 746

全程BPM在192附近飄忽不定
1
口口口口 |----|
口口口口 |----|
口口口口 |----|
口口口口 |----|
2
⑤⑥口口 |①-②-|
④③口口 |③-④-|
⑧⑦口口 |⑤-⑥-|
①②口口 |⑦-⑧-|
3
口口口口 |①-②-|
④②口口 |③-④-|
口口口口 |----|
③①口口 |----|
4
口口⑥⑤ |①-②-|
口口③④ |③-④-|
口口⑦⑧ |⑤-⑥-|
口口②① |⑦-⑧-|
5
口口口口 |①-②-|
口口②④ |③-④-|
口口口口 |----|
口口①③ |----|
6
⑤⑥①① |①-②-|
④③口口 |③-④-|
⑧⑦口口 |⑤-⑥-|
①②⑤⑤ |⑦-⑧-|
7
口口口口 |①-②-|
④②①① |③-④-|
口口⑤⑤ |⑤---|
③①口口 |----|
8
①①⑥⑤ |①-②-|
口口③④ |③-④-|
口口⑦⑧ |⑤-⑥-|
⑤⑤②① |⑦-⑧-|
9
口口口口 |①-②-|
①①②④ |③-④-|
⑤⑤口口 |⑤---|
口口①③ |----|
10
⑤⑥①① |①-②-|
④③口口 |③-④-|
⑧⑦口口 |⑤-⑥-|
①②⑤⑤ |⑦-⑧-|
11
口口口口 |①-②-|
④②①① |③-④-|
口口⑤⑤ |⑤---|
③①口口 |----|
12
①①⑥⑤ |①-②-|
口口③④ |③-④-|
口口⑦⑧ |⑤-⑥-|
⑤⑤②① |⑦-⑧-|
13
口口口口 |①-②-|
①①②④ |③-④-|
⑤⑤口口 |⑤---|
口口①③ |----|
14
⑤②①⑧ |①-②-|
口④③口 |③-④-|
⑥口口⑦ |⑤-⑥-|
口口口口 |⑦-⑧-|
15
口口口口 |①-②-|
口口口口 |③-④-|
口②①口 |----|
口④③口 |----|
16
⑧①②⑤ |①-②-|
口③④口 |③-④-|
⑦口口⑥ |⑤-⑥-|
口口口口 |⑦-⑧-|
17
口口口口 |①-②-|
口口口口 |③-④-|
口①②口 |----|
口③④口 |----|
18
⑤②①⑧ |①-②-|
口④③口 |③-④-|
⑥口口⑦ |⑤-⑥-|
口口口口 |⑦-⑧-|
19
口口口口 |①-②-|
口口口口 |③-④-|
口②①口 |----|
口④③口 |----|
20
⑧①②⑤ |①-②-|
口③④口 |③-④-|
⑦口口⑥ |⑤-⑥-|
口口口口 |⑦-⑧-|
21
口口口口 |①-②-|
口口口口 |③-④-|
口①②口 |----|
口③④口 |----|
22
①①⑦④ |①---|
口口③② |②-③-|
口口⑥⑤ |④-⑤-|
口口口口 |⑥-⑦-|
23
④②口口 |①---|
②④口口 |②---|
①③口口 |③---|
③①口口 |④---|
24
口口⑦⑥ |①-②-|
口口口口 |③-④-|
③④⑧⑤ |⑤-⑥-|
口口②① |⑦-⑧-|
25
口口口口 |①-②-|
②①口口 |③-④-|
口口口口 |----|
④③口口 |----|
26
③⑥①① |①---|
②②口口 |②---|
④⑤口口 |③-④-|
口口口口 |⑤-⑥-|
27
口口口口 |①-②-|
口口①② |③-④-|
口口口口 |----|
口口③④ |----|
28
口⑤⑥口 |①-②-|
⑦口口⑧ |③-④-|
口口④③ |⑤-⑥-|
①②口口 |⑦-⑧-|
29
③口口③ |①-②-|
口①①口 |③-④-|
口④④口 |----|
②口口② |----|
30
口①①口 |①---|
口口口② |--②-|
口③③口 |③---|
口口口④ |④---|
31
②②口③ |①---|
口口口口 |----|
口口口口 |②---|
①口口口 |--③-|
32
④口口④ |①---|
口①①口 |--②-|
②口口口 |③---|
口③③口 |④---|
33
口口口口 |①---|
口口口口 |----|
口口口口 |----|
①口口① |----|
34
口①①口 |①---|
②口口口 |--②-|
口③③口 |③---|
④口口口 |④---|
35
口口②② |①---|
口口口口 |----|
口口口口 |②---|
口口口① |----|
36
口口口口 |①---|
口①①口 |--②-|
口口口② |③---|
④③③④ |④---|
37
①口口① |①---|
口口口口 |----|
口口口口 |----|
口口口口 |----|
38
口口③④ |①-②-|
口②口口 |③-④-|
⑥口⑤口 |⑤-⑥-|
①⑦⑧口 |⑦-⑧-|
39
③口口③ |①-②-|
口①①口 |③-④-|
口④④口 |----|
②口口② |----|
40
口⑦①口 |①-②-|
⑥口②⑤ |③-④-|
口口口口 |⑤-⑥-|
③⑧④口 |⑦-⑧-|
41
③口口③ |①-②-|
口①①口 |③-④-|
口④④口 |----|
②口口② |----|
42
口口口③ |①-②-|
②口口口 |③-④-|
①口口④
口口口口

口⑥口口
口口口口
⑧口⑤口 |⑤-⑥-|
口口⑦口 |⑦-⑧-|
43
③口口③ |①-②-|
口①①口 |③-④-|
口④④口 |----|
②口口② |----|
44
口⑧①口 |①-②-|
③口口② |③-④-|
④口⑤⑥ |⑤-⑥-|
口口⑦口 |⑦-⑧-|
45
③口口③ |①-②-|
口①①口 |③-④-|
口④④口 |----|
②口口② |----|
46
口⑥⑥口 |①-②-|
①②①② |③---|
⑤④⑤④ |④-⑤-|
口③③口 |⑥---|
47
①口口① |①---|
口③②口 |②-③-|
口⑥⑤口 |④---|
④口口④ |⑤-⑥-|
48
①③②④ |①-②-|
口⑦⑤口 |③-④-|
口口口口 |⑤-⑥-|
口⑧⑥口 |⑦-⑧-|
49
④口口④ |①---|
②⑥⑥① |②---|
②③③① |③-④-|
⑤口口⑤ |⑤-⑥-|
50
口①①口 |①---|
⑥口口② |②-③-|
⑤口口③ |④---|
口④④口 |⑤-⑥-|
51
④口口⑤ |①---|
⑥①①⑦ |②-③-|
口口口口 |④-⑤-|
②口口③ |⑥-⑦-|
52
⑤①①⑤ |①-②-|
⑦③③⑦ |③-④-|
⑥②②⑥ |⑤-⑥-|
⑧④④⑧ |⑦-⑧-|
53
口①口口 |①-②-|
口口②口 |③---|
口③③口 |④---|
口④④口 |----|
54
①口⑤⑤ |①-②-|
⑥①口口 |③-④-|
③④⑧② |⑤-⑥-|
⑥口⑦② |⑦-⑧-|
55
①①⑦⑤ |①-②-|
口⑥②⑤ |③-④-|
③口⑧② |⑤-⑥-|
⑥④口口 |⑦-⑧-|
56
①⑤⑥口 |①-②-|
①⑦②口 |③-④-|
口④⑧口 |⑤-⑥-|
口③②口 |⑦-⑧-|
57
②口口③ |①---|
④口口① |②---|
①口口④ |③---|
③口口② |④---|
58
⑧⑤①口 |①-②-|
⑦⑤⑥① |③-④-|
②②③口 |⑤-⑥-|
口口④⑥ |⑦-⑧-|
59
口⑤④① |①-②-|
⑧口口口 |③-④-|
⑤⑦③① |⑤-⑥-|
②②⑥⑥ |⑦-⑧-|
60
②口口③ |①-②-|
口②④① |③-④-|
口⑧⑦① |⑤-⑥-|
口⑥⑤口 |⑦-⑧-|
61
③口口② |①---|
①口口④ |②---|
④口口① |③---|
②口口③ |④---|
62
④③②口 |①-②-|
①⑥②⑧ |③-④-|
口①⑦口 |⑤-⑥-|
口⑥⑤⑤ |⑦-⑧-|
63
口③⑤② |①-②-|
①⑥②口 |③-④-|
④⑥⑧⑤ |⑤-⑥-|
①口⑦口 |⑦-⑧-|
64
口④⑧口 |①-②-|
③⑦②口 |③-④-|
口⑤口口 |⑤-⑥-|
①①⑥② |⑦-⑧-|
65
②口口③ |①---|
④口口① |②---|
①口口④ |③---|
③口口② |④---|
66
⑤⑤①⑥ |①-②-|
口⑦①④ |③-④-|
②⑧口⑥ |⑤-⑥-|
口②口③ |⑦-⑧-|
67
⑤⑤口⑥ |①-②-|
⑧口①口 |③-④-|
⑦口④⑥ |⑤-⑥-|
②②①③ |⑦-⑧-|
68
⑥口①口 |①-②-|
口②③① |③-④-|
口⑧⑦口 |⑤-⑥-|
②口④⑤ |⑦-⑧-|
69
③口口② |①---|
①口口④ |②---|
④口口① |③---|
②口口③ |④---|
70
②口口② |①---|
口①①口 |----|
口①①口 |----|
口口口口 |②---|
71
口口口口 |①---|
口④③口 |----|
口②②口 |②---|
①口口① |③-④-|
72
口口口口 |----|
口口口口 |----|
口口口口 |----|
口口口口 |----|
73
②口口③ |①---|
④口口① |②---|
①口口④ |③---|
③口口② |④---|
74
⑦①①⑥ |①---|
口③④口 |②-③-|
口⑤②口 |④-⑤-|
口口口口 |⑥-⑦-|
75
口口②口 |①---|
口③口口 |----|
①口④① |②-③-|
口⑤口口 |④-⑤-|
76
口口口口 |----|
口③口口 |----|
口①②口 |--①-|
口口口口 |②-③-|
77
③口口② |①---|
①口口④ |②---|
④口口① |③---|
②口口③ |④---|
78
口口①④ |①---|
①④口口 |②---|
口口③② |③---|
③②口口 |④---|
79
④①口口 |①---|
口口④① |②---|
②③口口 |③---|
口口②③ |④---|
80
口口③④ |①---|
②①口口 |②---|
口口④③ |③---|
①②口口 |④---|
81
口口口口 |①---|
③①②③ |②---|
③口口③ |③---|
口②①口 |----|
82
④④①① |①---|
口口口口 |②---|
口口口口 |③---|
③③②② |④---|
83
口口口口 |①---|
③①②④ |②---|
④②①③ |③---|
口口口口 |④---|
84
③①①③ |①---|
口口口口 |②---|
口口口口 |③---|
④②②④ |④---|
85
口口口口 |①---|
③②①④ |②---|
②③④① |③---|
口口口口 |④---|
86
口口②① |①-②-|
口口④⑦ |③-④-|
口口⑥⑤ |⑤-⑥-|
口口③⑧ |⑦-⑧-|
87
口口②① |①-②-|
口③③口 |③---|
口④④口 |④---|
口口口口 |----|
88
①②口口 |①-②-|
⑦④口口 |③-④-|
⑤⑥口口 |⑤-⑥-|
⑧③口口 |⑦-⑧-|
89
①②口口 |①-②-|
口③③口 |③---|
口④④口 |④---|
口口口口 |----|
90
口口②① |①-②-|
口口④⑦ |③-④-|
口口⑥⑤ |⑤-⑥-|
口口③⑧ |⑦-⑧-|
91
口口②① |①-②-|
口③③口 |③---|
口④④口 |④---|
口口口口 |----|
92
①②②① |①-②-|
⑦④④⑦ |③-④-|
⑤⑥⑥⑤ |⑤-⑥-|
⑧③③⑧ |⑦-⑧-|
93
①②②① |①-②-|
口③③口 |③---|
口④④口 |④---|
口口口口 |----|
94
⑤⑥口口 |①-②-|
④③口口 |③-④-|
⑧⑦口口 |⑤-⑥-|
①②口口 |⑦-⑧-|
95
口⑤⑤口 |①-②-|
④②口口 |③-④-|
口⑤⑤口 |----|
③①口口 |⑤---|

不確定度: 0

最終更新:2014年12月11日 22:47