Lisa-RICCIA
DJ YOSHITAKA

BASIC

Level: 4
BPM: 205
Notes: 337

1
口口口口 |----|
口口口口 |----|
口口口口 |----|
口口口口 |----|
2
口口口口 |----|
口口口口 |----|
口口口口 |----|
口口口口 |----|
3
口口口口 |①---|
口①口口 |----|
口①口口 |----|
口口口口 |----|
4
口口口口 |①---|
口口①口 |----|
口口①口 |----|
口口口口 |----|
5
口口口口 |①---|
①口口① |----|
口口口口 |----|
口口口口 |----|
6
口口口口 |①---|
口口口口 |----|
①口口① |----|
口口口口 |----|
7
①口口① |①---|
口口口口 |----|
口口口口 |----|
口口口口 |----|
8
口③③口 |①---|
口口口口 |----|
口②②口 |②---|
口①①口 |--③-|
9
口口口口 |----|
口口口口 |----|
口口口口 |----|
口口口口 |----|
10
口口口口 |----|
口口口口 |----|
口口口口 |----|
口口口口 |----|
11
①口口口 |①---|
口口口口 |----|
口口口口 |----|
口口口口 |----|
12
口①口口 |①---|
口口口口 |----|
口口口口 |----|
口口口口 |----|
13
口口①口 |①---|
口口口口 |----|
口口口口 |----|
口口口口 |----|
14
口口口① |①---|
口口口口 |----|
口口口口 |----|
口口口口 |----|
15
口口口口 |①---|
口口口① |----|
口口口口 |----|
口口口口 |----|
16
口口口口 |①---|
口口口口 |----|
口口口① |----|
口口口口 |----|
17
口口口口 |①---|
口口口口 |----|
口口口口 |----|
口口口① |----|
18
口口口口 |①---|
口口口口 |----|
口口口口 |----|
口口①口 |----|
19
口口口口 |①---|
口口口口 |----|
口口口口 |②---|
②①口口 |----|
20
口口口口 |①---|
②口口口 |----|
①口口口 |②---|
口口口口 |----|
21
①②口口 |①---|
口口口口 |----|
口口口口 |②---|
口口口口 |----|
22
口口①② |①---|
口口口口 |----|
口口口口 |②---|
口口口口 |----|
23
口口口口 |①---|
口口口① |②---|
口口口② |③---|
口口④③ |④---|
24
口口口口 |①---|
④口口口 |②---|
③口口口 |③---|
②①口口 |④---|
25
①②③④ |①---|
口口口口 |②---|
口口口口 |③---|
口口口口 |④---|
26
口口口口 |①---|
口口口① |②---|
口口口② |③---|
口口④③ |④---|
27
口口口口 |①---|
①口②③ |②-③-|
④口口⑤ |--④-|
口口口口 |--⑤-|
28
口①①口 |----|
口口口口 |----|
口口口口 |①---|
口口口口 |----|
29
口口口口 |①---|
①口②③ |②-③-|
④口口⑤ |--④-|
口口口口 |--⑤-|
30
口口口口 |----|
口口口口 |----|
口口口口 |①---|
口①①口 |----|
31
口口口口 |①---|
①口②③ |②-③-|
④口口⑤ |--④-|
口口口口 |--⑤-|
32
②①①② |----|
口口口口 |----|
口口口口 |①---|
口口口口 |--②-|
33
口口口口 |----|
①口口① |----|
口口口口 |----|
口口口口 |--①-|
34
口口口口 |----|
口口口口 |----|
①口口① |①---|
口口口口 |----|
35
口口口口 |①---|
①口②③ |②-③-|
④口口⑤ |--④-|
口口口口 |--⑤-|
36
口①①口 |----|
口口口口 |----|
口口口口 |①---|
口口口口 |----|
37
口口口口 |①---|
①口②③ |②-③-|
④口口⑤ |--④-|
口口口口 |--⑤-|
38
口口口口 |----|
口口口口 |----|
口口口口 |①---|
口①①口 |----|
39
口口口口 |①---|
①口②③ |②-③-|
④口口⑤ |--④-|
口口口口 |--⑤-|
40
②①①② |----|
口口口口 |----|
口口口口 |①---|
口口口口 |--②-|
41
口口口口 |----|
口口口口 |----|
①口口① |----|
口口口口 |--①-|
42
口口口口 |----|
口口口口 |----|
口口口口 |----|
口口口口 |----|
43
口②②口 |①---|
③①①③ |--②-|
口口口口 |----|
口口口口 |--③-|
44
口口口口 |----|
口口口口 |----|
口口口口 |①---|
①口口② |②---|
45
口口口口 |①---|
口②③口 |--②-|
④①①④ |--③-|
口口口口 |--④-|
46
口口口口 |--①-|
②口口② |----|
口①①口 |②---|
口口口口 |----|
47
口①①口 |①---|
②口口② |----|
口口口口 |②---|
口口口口 |----|
48
口口口口 |①---|
口口口口 |----|
口②②口 |②---|
口①①口 |----|
49
口口口口 |①---|
口①①口 |--②-|
②③④口 |--③-|
口口口口 |--④-|
50
口口口口 |----|
口口口口 |----|
口口口口 |----|
口口口口 |----|
51
口口口口 |①---|
口①①口 |----|
口口口口 |----|
口口口口 |----|
52
①①口口 |--①-|
②③口口 |----|
口口口口 |②---|
口口口口 |③---|
53
口口口口 |①---|
口口①② |②---|
口口口口 |----|
口口口口 |----|
54
①①口口 |--①-|
口口口⑤ |--②-|
②③口口 |③--④|
口口口④ |--⑤-|
55
口口口① |①---|
口②③口 |②---|
口口口口 |----|
口口口口 |③---|
56
口口口口 |----|
口①②口 |①---|
口③口口 |----|
口口口口 |②-③-|
57
口口口口 |①---|
②口口③ |--②-|
口口①④ |----|
口口口口 |③-④-|
58
口口口口 |--①-|
口②③口 |----|
①④⑤口 |②-③-|
口口口口 |④-⑤-|
59
口口口口 |①---|
③口口② |②---|
口口口④ |③---|
口①口口 |④---|
60
口口口口 |①---|
口口口口 |②---|
①口⑥口 |③-④-|
③④⑤② |⑤-⑥-|
61
口③④口 |①---|
口①②口 |②---|
口口口口 |③---|
口口口口 |④---|
62
①口口② |①---|
③口口口 |②---|
④口口⑤ |③-④-|
口口口口 |--⑤-|
63
口③③口 |①---|
口口口口 |②---|
口①②口 |----|
口口口口 |③---|
64
口口口口 |----|
口②③口 |①---|
口口口口 |----|
口①①口 |②-③-|
65
口③口口 |①---|
口④口① |--②-|
口②②口 |----|
口口口口 |③-④-|
66
①口口① |--①-|
口口口口 |----|
③②口③ |--②-|
口口口口 |③---|
67
口口口口 |①---|
口①①口 |----|
口口口口 |----|
口口口口 |----|
68
口口口口 |----|
口口口口 |----|
口口口口 |----|
口口口口 |----|
69
口口口口 |①---|
①口口① |----|
口口口口 |----|
口口口口 |----|
70
口口口口 |----|
口口口口 |----|
口口口口 |----|
口口口口 |----|
71
口①①口 |①---|
口②②口 |----|
口口口口 |②---|
口口口口 |----|
72
口口口口 |①---|
口口口口 |----|
口①①口 |②---|
口②②口 |----|
73
①口口① |①---|
②口口② |----|
口口口口 |②---|
口口口口 |----|
74
口口口口 |①---|
口口口口 |----|
①口口① |②---|
②口口② |----|
75
口口口口 |①---|
①口②③ |②-③-|
④口口⑤ |--④-|
口口口口 |--⑤-|
76
口①①口 |----|
口口口口 |----|
口口口口 |①---|
口口口口 |----|
77
口口口口 |①---|
①口②③ |②-③-|
④口口⑤ |--④-|
口口口口 |--⑤-|
78
口口口口 |----|
口口口口 |----|
口口口口 |①---|
口①①口 |----|
79
口口口口 |①---|
①口②③ |②-③-|
④口口⑤ |--④-|
口口口口 |--⑤-|
80
②①①② |----|
口口口口 |----|
口口口口 |①---|
口口口口 |--②-|
81
口口口口 |----|
口口口口 |----|
口口口口 |----|
口口口口 |----|
82
口口口口 |----|
口口口口 |----|
口口口口 |----|
口口口口 |----|
83
口口口口 |①---|
①口口① |----|
口口口口 |----|
口口口口 |----|
84
口口口口 |----|
口口口口 |----|
口口口口 |----|
口口口口 |----|
85
口口口口 |①-②-|
①②③④ |③-④-|
口⑤⑥⑦ |--⑤-|
口口口口 |⑥-⑦-|
86
口①①口 |----|
口口口口 |----|
口口口口 |①---|
口口口口 |----|
87
口口口口 |①-②-|
①②③④ |③-④-|
口⑤⑥⑦ |--⑤-|
口口口口 |⑥-⑦-|
88
口口口口 |----|
口口口口 |----|
口口口口 |①---|
口①①口 |----|
89
口口口口 |①---|
①口②③ |②-③-|
④口口⑤ |--④-|
口口口口 |--⑤-|
90
②①①② |----|
口口口口 |----|
口口口口 |①---|
口口口口 |--②-|
91
口口口口 |----|
①口口① |----|
口口口口 |----|
口口口口 |--①-|
92
口口口口 |----|
口口口口 |----|
口口口口 |----|
口口口口 |----|
93
口口口口 |①-②-|
①②③④ |③-④-|
口⑤⑥⑦ |--⑤-|
口口口口 |⑥-⑦-|
94
口①①口 |----|
口口口口 |----|
口口口口 |①---|
口口口口 |----|
95
口口口口 |①-②-|
①②③④ |③-④-|
口⑤⑥⑦ |--⑤-|
口口口口 |⑥-⑦-|
96
口口口口 |----|
口口口口 |----|
口口口口 |①---|
口①①口 |----|
97
口口口口 |①---|
①口②③ |②-③-|
④口口⑤ |--④-|
口口口口 |--⑤-|
98
②①①② |----|
口口口口 |----|
口口口口 |①---|
口口口口 |--②-|
99
口口口口 |----|
③口口③ |----|
口①②口 |①---|
口口口口 |②-③-|
100
口口口口 |----|
口口口口 |----|
口口口口 |----|
口口口口 |----|
101
口②②口 |①---|
③①①③ |--②-|
口口口口 |----|
口口口口 |--③-|
102
口口口口 |----|
口口口口 |----|
口口口口 |①---|
①口口② |②---|
103
口口口口 |①---|
口②③口 |--②-|
④①①④ |--③-|
口口口口 |--④-|
104
口口口口 |--①-|
②口口② |----|
口①①口 |②---|
口口口口 |----|
105
口①①口 |①---|
②口口② |----|
口口口口 |②---|
口口口口 |----|
106
口口口口 |①---|
口口口口 |----|
口②②口 |②---|
口①①口 |----|
107
口口口口 |①---|
口①①口 |--②-|
②③④口 |--③-|
口口口口 |--④-|
108
口口口口 |----|
口口口口 |----|
口口口口 |----|
口口口口 |----|
109
口口口口 |①---|
口①①口 |----|
口①①口 |----|
口口口口 |----|


不確定度: 0

最終更新:2014年05月04日 22:20