FRIENDSHIP
PON

ADVANCED

Level: 7
BPM: 208
Notes: 425

1
口口口口 |----|
口口口口 |----|
口口口口 |----|
口口口口 |----|
2
口①口口 |①-②-|
口口②口 |③-④-|
⑥③口⑤ |--⑤-|
口口④口 |--⑥-|
3
口②口口 |--①-|
口口③口 |--②-|
口④①⑥ |③-④-|
口口⑤口 |⑤-⑥-|
4
口口④口 |①-②-|
⑥③口⑤ |③-④-|
口口②口 |--⑤-|
口①口口 |--⑥-|
5
口口口口 |--①-|
口④①口 |--②-|
口口③口 |③-④-|
口②口口 |----|
6
①①①① |①---|
口口口口 |----|
口口口口 |----|
口口口口 |----|
7
口口口口 |----|
口口③口 |----|
口口②口 |①-②-|
口口①口 |③---|
8
③③③③ |①---|
口②口口 |--②-|
口口口口 |----|
口①口口 |③---|
9
③口口③ |----|
口①②口 |----|
口口口口 |①-②-|
口口口口 |--③-|
10
口口口口 |--①-|
②口口② |--②-|
口①①口 |--③-|
④③③④ |--④-|
11
口口③口 |----|
口口口④ |--①-|
①口②口 |--②-|
口口口口 |③-④-|
12
口口口口 |--①-|
①口口口 |----|
口口口口 |----|
口口口口 |----|
13
口口口口 |----|
③口口口 |--①-|
②口口口 |②-③-|
①口口口 |----|
14
口①口① |①---|
④口②口 |②-③-|
口口③口 |--④-|
⑤口⑤口 |--⑤-|
15
③口③口 |----|
口口口② |----|
口口口① |①-②-|
口口口口 |--③-|
16
口口口口 |----|
口①口③ |①-②-|
口②口口 |--③-|
口④口④ |--④-|
17
口口口口 |--①-|
口口口口 |②---|
①口①口 |----|
②口②口 |----|
18
①②③口 |①---|
①②③口 |--②-|
口口口口 |----|
口口口口 |③---|
19
口口口口 |--①-|
口口口口 |----|
口③②① |②---|
口③②① |③---|
20
③口口口 |①---|
②口口口 |②-③-|
口口口口 |----|
①口口口 |----|
21
口口口口 |----|
口②口口 |----|
口口①口 |①-②-|
口口口口 |----|
22
①①①① |①---|
口口③口 |----|
口②口口 |②-③-|
口口口口 |----|
23
①口口① |①---|
口口④口 |----|
口口③口 |②-③-|
口口②口 |④---|
24
③③③③ |①---|
口②口口 |--②-|
口口口口 |----|
口①口口 |③---|
25
③口口③ |----|
口①②口 |----|
口口口口 |①-②-|
口口口口 |--③-|
26
口口口口 |--①-|
②口口② |--②-|
口①①口 |--③-|
④③③④ |--④-|
27
口口③口 |----|
口口口④ |--①-|
①口②口 |--②-|
口口口口 |③-④-|
28
口口口口 |--①-|
①口口口 |----|
口口口口 |----|
口口口口 |----|
29
口口口口 |----|
③口口口 |--①-|
②口口口 |②-③-|
①口口口 |----|
30
口①④① |①---|
④口②口 |②-③-|
口口③口 |--④-|
⑤口口⑤ |--⑤-|
31
③口③口 |----|
口口口② |----|
口口口① |①-②-|
口口口口 |--③-|
32
口③口口 |----|
口①口③ |①-②-|
口②口口 |--③-|
口④口④ |--④-|
33
口口口口 |--①-|
口口口口 |②---|
①口①口 |----|
②口②口 |----|
34
①②③口 |①---|
①②③口 |--②-|
口口口口 |----|
口口口口 |③---|
35
口口口口 |①---|
口口口口 |--②-|
口③②① |----|
口③②① |③---|
36
③口口口 |①---|
②口口口 |②-③-|
口口口口 |----|
①口口口 |----|
37
口口口口 |----|
口口口口 |----|
口口口口 |----|
口口口口 |----|
38
口口口口 |----|
口口口口 |----|
口口口口 |----|
口口口口 |----|
39
口口口口 |----|
口口口口 |----|
②③口口 |--①-|
①口口口 |②-③-|
40
④口口① |①-②-|
⑤⑥③② |③-④-|
口口口⑧ |⑤-⑥-|
口口口⑦ |⑦-⑧-|
41
口③③⑤ |①-②-|
口口口④ |③---|
口口①口 |--④-|
⑥②②口 |⑤-⑥-|
42
⑤口口口 |①-②-|
④口⑦口 |③-④-|
①⑧⑥③ |⑤-⑥-|
口口口② |⑦-⑧-|
43
口③③口 |①-②-|
口①口口 |③---|
⑤⑥口口 |--④-|
④②②口 |⑤-⑥-|
44
④口口① |①-②-|
⑤⑥③② |③-④-|
口口口⑧ |⑤-⑥-|
口口口⑦ |⑦-⑧-|
45
口②②口 |①-②-|
口口口口 |----|
口口①口 |--③-|
口③④口 |④---|
46
②②②② |①---|
口①①口 |--②-|
口口口口 |----|
口口口口 |----|
47
口口口口 |----|
口口口口 |----|
②③口口 |--①-|
①口口口 |②-③-|
48
④口口① |①-②-|
⑤⑥③② |③-④-|
口口口⑧ |⑤-⑥-|
口口口⑦ |⑦-⑧-|
49
口③③⑤ |①-②-|
口口口④ |③---|
口口①口 |--④-|
⑥②②口 |⑤-⑥-|
50
口④④口 |①-②-|
口口口口 |③-④-|
①⑤⑤③ |--⑤-|
口⑥⑥② |⑥---|
51
口口口口 |----|
③口口③ |①---|
②口口② |②---|
①口口① |③---|
52
口口①口 |①---|
口口口口 |②-③-|
口②口口 |----|
口口③口 |----|
53
口口②口 |①---|
口口②② |----|
①口口口 |②---|
①①口口 |----|
54
①口口口 |①---|
①①口口 |----|
口口②② |----|
口口③口 |②-③-|
55
①①①① |----|
口口口口 |--①-|
口口口口 |----|
口口口口 |----|
56
口口口口 |①---|
口④口口 |--②-|
口口③口 |③-④-|
①②②① |----|
57
①①①① |①---|
口口③口 |----|
口②口口 |②-③-|
口口口口 |----|
58
①口口① |①---|
口口④口 |----|
口口③口 |②-③-|
口口②口 |④---|
59
③③③③ |①---|
口②口口 |--②-|
口口口口 |----|
口①口口 |③---|
60
③口口③ |----|
口①②口 |----|
口口口口 |①-②-|
口口口口 |--③-|
61
口口口口 |--①-|
②口口② |--②-|
口①①口 |--③-|
④③③④ |--④-|
62
口口③口 |----|
口口口④ |--①-|
①口②口 |--②-|
口口口口 |③-④-|
63
口口口口 |--①-|
①口口口 |----|
口口口口 |----|
口口口口 |----|
64
口口口口 |----|
③口口口 |--①-|
②口口口 |②-③-|
①口口口 |----|
65
口①④① |①---|
④口②口 |②-③-|
口口③口 |--④-|
⑤口⑤口 |--⑤-|
66
③口③口 |----|
口口口② |----|
口口口① |①-②-|
口口口口 |--③-|
67
口③口口 |----|
口①口③ |①-②-|
口②口口 |--③-|
口④口④ |--④-|
68
口口口口 |--①-|
口口口口 |②---|
①口①口 |----|
②口②口 |----|
69
①②③口 |①---|
①②③口 |--②-|
口口口口 |----|
口口口口 |③---|
70
口口口口 |①---|
口口口口 |--②-|
口③②① |----|
口③②① |③---|
71
③口口口 |①---|
②口口口 |--②-|
口口口口 |③---|
①口口口 |----|
72
口口口口 |----|
口口口口 |----|
口口口口 |----|
口口口口 |----|
73
③①口口 |①---|
口①②口 |--②-|
口口②口 |----|
口口口口 |③---|
74
口口口① |①---|
口口④口 |②-③-|
口②③口 |----|
口口口口 |④---|
75
口口口口 |①---|
口①口口 |--②-|
口口口口 |----|
②②②② |----|
76
口口口口 |----|
口口口口 |----|
口口口口 |----|
口口口口 |----|
77
⑦⑧⑤④ |①-②-|
口口⑥口 |③-④-|
口③口口 |⑤-⑥-|
①②口口 |⑦-⑧-|
78
口口口口 |①-②-|
口①口口 |③-④-|
口⑦④口 |--⑤-|
⑤⑥③② |⑥-⑦-|
79
④口口④ |①-②-|
①③③② |--③-|
⑤口口⑤ |--④-|
口口口口 |⑤---|
80
口口③口 |--①-|
口口口口 |②---|
口①④口 |③---|
口②口口 |④---|
81
口口口③ |①-②-|
口口口口 |--③-|
②口口④ |--④-|
①口口口 |----|
82
口口口口 |①---|
口①①口 |----|
口②②口 |②---|
口口口口 |----|
83
口口口口 |①---|
口④口口 |--②-|
②口口③ |--③-|
口①①口 |--④-|
84
口⑤口口 |--①-|
⑥口④口 |--②-|
口③口口 |③-④-|
口①②口 |⑤-⑥-|
85
口口口口 |①-②-|
口②口① |③-④-|
⑤口④⑥ |--⑤-|
口③口口 |--⑥-|
86
口口⑤口 |--①-|
口④口口 |--②-|
口①③口 |③-④-|
口②口口 |⑤---|
87
①口口口 |①---|
口口口口 |----|
口口口口 |----|
口口口口 |----|


不确定度: 0

最終更新:2012年11月08日 18:20