Lisa-RICCIA
DJ YOSHITAKA

ADVANCED

Level: 8
BPM: 205
Notes: 600

1
口口口口 |----|
口口口口 |----|
口口口口 |----|
口口口口 |----|
2
口口口口 |----|
口口口口 |----|
口口口口 |----|
口口口口 |----|
3
口⑤口口 |①---|
口口③口 |②-③-|
①口②口 |--④-|
口④口口 |--⑤-|
4
⑥口口口 |--①-|
口③④口 |②-③-|
口①②口 |④--⑤|
⑤口口口 |--⑥-|
5
口口⑤口 |①---|
口口口③ |②-③-|
①口口② |--④-|
口口④口 |--⑤-|
6
⑥口口口 |--①-|
口①②口 |②-③-|
口③④口 |④--⑤|
⑤口口口 |--⑥-|
7
口口⑤口 |①---|
口口口③ |②-③-|
①口口② |--④-|
口口④口 |--⑤-|
8
⑥口口⑥ |--①-|
口①②口 |②-③-|
口③④口 |④-⑤-|
口⑤口口 |--⑥-|
9
口口口口 |----|
口口口口 |----|
口口口口 |----|
①口口① |-①--|
10
口口口口 |----|
口口口口 |----|
口口口口 |----|
口口口口 |----|
11
口口口口 |①---|
口①口口 |----|
口口①口 |----|
口口口口 |----|
12
口口口口 |--①-|
①口③口 |----|
①口②口 |②---|
口口口口 |③---|
13
口口②② |①---|
口口口口 |②---|
口口口口 |----|
口口口① |----|
14
④口口⑤ |--①②③---|
口口口③ |--④-|
口①②③ |⑤--⑥|
⑥口口⑦ |--⑦-|
15
口口①口 |①---|
口③口② |②---|
口口口② |----|
口口口口 |③---|
16
口口口口 |----|
口口③口 |①---|
口②①口 |----|
口口口口 |②-③-|
17
口①口口 |①---|
②口口④ |--②-|
②口口③ |----|
口口口口 |③-④-|
18
口口①① |--①-|
⑤口⑥口 |------②③|
⑦口口口 |④-⑤-|
口②③④ |⑥-⑦-|
19
口③口④ |①---|
口口口② |②---|
口口①② |③---|
口口口口 |④---|
20
口口口口 |①---|
①④②⑥ |②---|
口③口⑤ |③-④-|
口口口口 |⑤-⑥-|
21
①口②口 |①---|
③口④口 |②---|
口口口口 |③---|
口口口口 |④---|
22
口⑥口口 |①---|
口口口⑦ |②-----③④|
①口②口 |⑤-⑥-|
口③④⑤ |--⑦-|
23
口口①① |①---|
口口口口 |②---|
②②口口 |----|
口口口③ |③---|
24
口口口口 |----|
口口③口 |①---|
口口②口 |----|
①口口口 |②-③-|
25
口①口② |①---|
④④口② |--②-|
③口口口 |----|
口口口口 |③-④-|
26
口④口口 |--①-|
口口口③ |----|
口②①① |--②-|
口口口③ |③-④-|
27
口⑤口口 |①---|
口口③口 |②-③-|
①口②口 |--④-|
口④口口 |--⑤-|
28
⑥口口口 |--①-|
口③④口 |②-③-|
口①②口 |④--⑤|
⑤口口口 |--⑥-|
29
口口⑤口 |①---|
口口口③ |②-③-|
①口口② |--④-|
口口④口 |--⑤-|
30
⑥口口口 |--①-|
口①②口 |②-③-|
口③④口 |④--⑤|
⑤口口口 |--⑥-|
31
口口⑤口 |①---|
口口口③ |②-③-|
①口口② |--④-|
口口④口 |--⑤-|
32
⑥口口⑥ |--①-|
口①②口 |②-③-|
口③④口 |④-⑤-|
口⑤口口 |--⑥-|
33
口口口⑥ |--①-|
口②口① |②-③-|
口④口③ |④-⑤-|
口口口⑤ |--⑥-|
34
口口口口 |--①-|
②③①④ |②---|
口⑤口⑥ |③-④-|
口口口口 |⑤-⑥-|
35
口⑤口口 |①---|
口口③口 |②-③-|
①口②口 |--④-|
口④口口 |--⑤-|
36
⑥口口口 |--①-|
口③④口 |②-③-|
口①②口 |④--⑤|
⑤口口口 |--⑥-|
37
口口⑤口 |①---|
口口口③ |②-③-|
①口口② |--④-|
口口④口 |--⑤-|
38
⑥口口口 |--①-|
口①②口 |②-③-|
口③④口 |④--⑤|
⑤口口口 |--⑥-|
39
口口⑤口 |①---|
口口口③ |②-③-|
①口口② |--④-|
口口④口 |--⑤-|
40
⑥口口⑥ |--①-|
口①②口 |②-③-|
口③④口 |④-⑤-|
口⑤口口 |--⑥-|
41
口口口⑥ |--①-|
口②口① |②-③-|
口④口③ |④-⑤-|
口口口⑤ |--⑥-|
42
①口口口 |--①-|
口③口口 |②---|
②口④口 |----|
口口口口 |③-④-|
43
⑤口①⑤ |①---|
②口口③ |②-③-|
口口口口 |--④-|
④口口④ |--⑤-|
44
口口口口 |①---|
口①①口 |②---|
②④⑤③ |③---|
口口口口 |④-⑤-|
45
⑤①①⑤ |①---|
②口口口 |②-③-|
③口口口 |--④-|
口④④口 |--⑤-|
46
口口口口 |--①-|
⑥①①口 |--②-|
②③④⑤ |③-④-|
口口口口 |⑤-⑥-|
47
口③③② |--①-|
口口口① |②---|
口口口口 |③---|
口④④口 |④---|
48
口口口口 |①---|
③①①④ |②-③-|
②口口⑤ |--④-|
口口口口 |⑤---|
49
⑦①④⑦ |①-②-|
口③⑥口 |③-④-|
口口②口 |⑤-⑥-|
口⑤口口 |--⑦-|
50
口口口口 |----|
口口口口 |----|
①口口口 |----|
口口口口 |①---|
51
口口口口 |①---|
口口口口 |----|
口口口① |----|
口口口口 |----|
52
①口口② |--①-|
口口口口 |----|
口口口口 |②---|
③口口口 |③---|
53
口口口口 |①---|
口口口② |②---|
口口①口 |----|
口口②口 |----|
54
④口口口 |--①-|
⑤口②② |--②-|
口口③③ |③--④|
①口口口 |--⑤-|
55
口口②② |①---|
口口口口 |②---|
口口口口 |----|
③口①① |③---|
56
口口口口 |----|
口口口口 |①---|
口口口③ |----|
②口口① |②-③-|
57
口①口② |①---|
口④口口 |--②-|
口③口口 |----|
④口口口 |③-④-|
58
口口①⑤ |--①-|
④口口口 |----|
口口③① |②-③-|
口②口口 |④-⑤-|
59
③口④口 |①---|
口口口口 |②---|
口口口口 |③---|
①口②口 |④---|
60
③③口② |①---|
口口④④ |②---|
⑤⑤口口 |③-④-|
①口⑥⑥ |⑤-⑥-|
61
口口口口 |①---|
③①口口 |②---|
口口④② |③---|
①③口口 |④---|
62
①⑥②⑦ |①---|
口口口口 |②-----③④|
⑥①⑦② |⑤-⑥-|
口③④⑤ |--⑦-|
63
口口②口 |①---|
①①口口 |②---|
③③口② |----|
口口口口 |③---|
64
口口口③ |----|
口口①① |①---|
②口③口 |----|
口②口口 |②-③-|
65
①口口口 |①---|
口④②口 |--②-|
③①口口 |----|
④口口② |③-④-|
66
③口①口 |--①-|
口口口③ |----|
③口②① |--②-|
口口口③ |③---|
67
口①口口 |①---|
②口③口 |②-③-|
口④口⑤ |④-⑤-|
⑥口⑦口 |⑥-⑦-|
68
口口口口 |----|
口①①口 |----|
口口口口 |①---|
口口口口 |----|
69
①口口① |①---|
⑥口⑦口 |②-③-|
口④口⑤ |④-⑤-|
②口③口 |⑥-⑦-|
70
口①口口 |----|
口②口口 |--①-|
口口口口 |②---|
口口口口 |----|
71
口⑤⑤口 |①---|
①口②③ |②-③-|
口口口口 |--④-|
口④④口 |--⑤-|
72
口口口口 |----|
②口③③ |----|
①口口口 |①-②-|
口口口口 |--③-|
73
口④⑤口 |--①-|
口⑥⑦口 |②-③-|
口②③口 |④-⑤-|
口口①口 |⑥-⑦-|
74
口口口口 |----|
①口口① |----|
口口口口 |①---|
口口口口 |----|
75
口⑤口口 |①---|
口口③口 |②-③-|
①口②口 |--④-|
口④口口 |--⑤-|
76
⑥口口口 |--①-|
口③④口 |②-③-|
口①②口 |④--⑤|
⑤口口口 |--⑥-|
77
口口⑤口 |①---|
口口口③ |②-③-|
①口口② |--④-|
口口④口 |--⑤-|
78
⑥口口口 |--①-|
口①②口 |②-③-|
口③④口 |④--⑤|
⑤口口口 |--⑥-|
79
口口⑤口 |①---|
口口口③ |②-③-|
①口口② |--④-|
口口④口 |--⑤-|
80
⑥口口⑥ |--①-|
口①②口 |②-③-|
口③④口 |④-⑤-|
口⑤口口 |--⑥-|
81
口口口口 |----|
①口口② |①-②-|
③口口④ |③-④-|
⑤口口⑥ |⑤-⑥-|
82
口①②口 |--①-|
口口口口 |②---|
口口口口 |----|
口口口口 |----|
83
①口口① |①---|
口②③口 |②-③-|
口④⑤口 |④-⑤-|
口⑥⑦口 |⑥-⑦-|
84
口①②口 |--①-|
口口口③ |②---|
口口口口 |----|
口口口口 |③---|
85
口⑦口口 |①-②-|
②口④口 |③-④-|
①口③口 |--⑤-|
⑥⑤口口 |⑥-⑦-|
86
⑥口口口 |--①-|
口③④口 |②-③-|
口①②口 |④--⑤|
⑤口口口 |--⑥-|
87
口口⑦口 |①-②-|
②口口④ |③-④-|
①口口③ |--⑤-|
口口⑤⑥ |⑥-⑦-|
88
⑥口口口 |--①-|
口①②口 |②-③-|
口③④口 |④--⑤|
⑤口口口 |--⑥-|
89
口口⑥口 |①---|
口口口③ |②-③-|
①口口② |--④-|
口口④⑤ |⑤-⑥-|
90
⑥口口⑥ |--①-|
口①②口 |②-③-|
口③④口 |④-⑤-|
口⑤口口 |--⑥-|
91
口口口⑦ |--①-|
口②口① |②-③-|
口④口③ |④-⑤-|
口⑥口⑤ |⑥-⑦-|
92
口口口口 |--①-|
①③②④ |②---|
口⑤口⑥ |③-④-|
口口口口 |⑤-⑥-|
93
口⑦口口 |①-②-|
②口④口 |③-④-|
①口③口 |--⑤-|
⑥⑤口口 |⑥-⑦-|
94
⑥口口口 |--①-|
口③④口 |②-③-|
口①②口 |④--⑤|
⑤口口口 |--⑥-|
95
口口⑦口 |①-②-|
②口口④ |③-④-|
①口口③ |--⑤-|
口口⑤⑥ |⑥-⑦-|
96
⑥口口口 |--①-|
口①②口 |②-③-|
口③④口 |④--⑤|
⑤口口口 |--⑥-|
97
口口⑥口 |①---|
口口口③ |②-③-|
①口口② |--④-|
口口④⑤ |⑤-⑥-|
98
⑥口口⑥ |--①-|
口①②口 |②-③-|
口③④口 |④-⑤-|
口⑤口口 |--⑥-|
99
口口口⑦ |--①-|
口②口① |②-③-|
口④口③ |④-⑤-|
口⑥口⑤ |⑥-⑦-|
100
口口口口 |--①-|
①③②口 |②---|
口口④口 |----|
口口口口 |③-④-|
101
②⑤口③ |①---|
口口口口 |②-③-|
口口口口 |--④-|
④①口④ |--⑤-|
102
③口口③ |①---|
④①口口 |②---|
⑤口口口 |③---|
口②②口 |④-⑤-|
103
⑤①①⑤ |①---|
口口口③ |②-③-|
口口口② |--④-|
口④④口 |--⑤-|
104
口②④口 |--①-|
口③⑤口 |--②-|
口口⑥口 |③-④-|
①口口① |⑤-⑥-|
105
口⑤⑤口 |--①-|
口口口① |②-③-|
②口口③ |④---|
口④④口 |⑤---|
106
②口口② |①---|
③口口⑤ |②-③-|
口口口④ |--④-|
①口口① |⑤---|
107
⑦①口⑦ |①-②-|
口②③口 |③-④-|
⑦⑤④⑦ |⑤-⑥-|
口⑥口口 |--⑦-|
108
口口口口 |----|
口口口口 |----|
口口口口 |----|
口口口口 |----|
109
口口口口 |--①-|
①②③口 |②-③-|
④口口⑤ |--④-|
口口口口 |--⑤-|
110
口口口口 |--①-|
口③④⑤ |--②-|
口口口口 |--③-|
①口口② |④-⑤-|


不確定度: 0

最終更新:2014年05月04日 22:20