VALLIS-NERIA
DJ YOSHITAKA

BASIC

Level: 4
BPM: 185
Notes: 276

1
口口口口 |----|
口口口口 |----|
口口口口 |----|
口口口口 |----|
2
口口口口 |①---|
口①口口 |----|
口口口口 |----|
口口口口 |----|
3
口口口口 |①---|
口口①口 |----|
口口口口 |----|
口口口口 |----|
4
口口口口 |①---|
口口口口 |----|
口①口口 |----|
口口口口 |----|
5
口口口口 |①---|
口口口口 |----|
口口①口 |----|
口口口口 |----|
6
口口口口 |①---|
①②③④ |②---|
口口口口 |③---|
口口口口 |④---|
7
口口口口 |①---|
口口口口 |②---|
④③②① |③---|
口口口口 |④---|
8
口口口口 |①---|
口①①口 |----|
口口口口 |----|
口口口口 |----|
9
口口口口 |----|
口口口口 |----|
口口口口 |----|
口口口口 |----|
10
口口口口 |①---|
①口口① |----|
①口口① |----|
口口口口 |----|
11
口口口口 |----|
口①口口 |----|
口口口口 |----|
口口口口 |①---|
12
口口口口 |①---|
口口口口 |②---|
口①口口 |----|
口②口口 |----|
13
口口口口 |----|
口口①口 |----|
口口②口 |①---|
口口口口 |②---|
14
口口口口 |①---|
口口口口 |②---|
④口口口 |③---|
③②①口 |④---|
15
②③④口 |①---|
①口口口 |②---|
口口口口 |③---|
口口口口 |④---|
16
口口口① |①---|
口口口② |②---|
口口口③ |③---|
口口口④ |④---|
17
口口口口 |①---|
口口口口 |②---|
口口口口 |③---|
③②①口 |----|
18
口口口口 |①---|
①②口口 |----|
口口③口 |②---|
口口口口 |--③-|
19
口口口口 |----|
口口口口 |--①-|
口口口口 |----|
口①口口 |----|
20
口口口口 |①---|
口口口口 |----|
口①①口 |----|
口口口口 |----|
21
口口口口 |①---|
口①①口 |----|
口口口口 |----|
口口口口 |----|
22
口口口口 |①---|
①②口口 |----|
口口③口 |②---|
口口口口 |--③-|
23
口口口口 |----|
口口口口 |----|
口①②口 |①---|
口口口口 |--②-|
24
口口口口 |----|
口口口口 |----|
口口口口 |----|
口口口口 |----|
25
口口口口 |①---|
①口口② |②---|
③口口④ |③---|
口口口口 |④---|
26
口口口口 |①---|
①②口口 |----|
口口③口 |②---|
口口口口 |--③-|
27
口口口口 |----|
口口口口 |----|
口口口口 |①---|
口①①口 |----|
28
①口口① |①---|
口口口口 |----|
口②②口 |②---|
口口口口 |----|
29
口口口口 |①---|
②口口① |②---|
④口口③ |③---|
口口口口 |④---|
30
口②口① |①---|
口③口口 |--②-|
口④口口 |--③-|
口口口口 |--④-|
31
口口口口 |①---|
口口口口 |----|
口口口口 |----|
口口①口 |----|
32
①口②口 |①---|
口口③口 |--②-|
口口④口 |--③-|
口口口口 |--④-|
33
口口口口 |①---|
口口口口 |----|
口口口口 |----|
口①口口 |----|
34
口口口④ |①---|
口口③口 |②---|
口②口口 |③---|
①口口口 |④---|
35
①口口口 |①---|
口②口口 |②---|
口口③口 |③---|
口口口④ |④---|
36
口口口口 |①---|
口口口口 |②---|
口③④口 |③---|
口①②口 |④---|
37
口③④口 |①---|
口①②口 |②---|
口口口口 |③---|
口口口口 |④---|
38
口②口① |①---|
口③口口 |--②-|
口④口口 |--③-|
口口口口 |--④-|
39
口口口口 |①---|
口口口口 |----|
口口口口 |----|
口口①口 |----|
40
①口②口 |①---|
口口③口 |--②-|
口口④口 |--③-|
口口口口 |--④-|
41
口口口口 |①---|
口口口口 |----|
口口口口 |----|
口①口口 |----|
42
口口口④ |①---|
口口③口 |②---|
口②口口 |③---|
①口口口 |④---|
43
①口口口 |①---|
口②口口 |②---|
口口③口 |③---|
口口口④ |④---|
44
口口口口 |①---|
口口口口 |②---|
口③④口 |③---|
口①②口 |④---|
45
口③④口 |①---|
口①②口 |②---|
口口口口 |③---|
口口口口 |④---|
46
口口口口 |①---|
口①②口 |----|
口口口口 |②---|
口口口口 |----|
47
口口口口 |①---|
口口口口 |----|
口①②口 |②---|
口口口口 |----|
48
口口口口 |①---|
口①②口 |----|
口口口口 |②---|
口口口口 |----|
49
口口口口 |①---|
口口口口 |----|
口①②口 |②---|
口口口口 |----|
50
口口口口 |①---|
①②③④ |②---|
口口口口 |③---|
口口口口 |④---|
51
口口口口 |①---|
口口口口 |②---|
④③②① |③---|
口口口口 |④---|
52
口口口口 |①---|
①②③④ |②---|
口口口口 |③---|
口口口口 |④---|
53
口口口口 |①---|
口口口口 |②---|
④③②① |③---|
口口口口 |④---|
54
口口①口 |①---|
口②口口 |②---|
口口③口 |③---|
口④口口 |④---|
55
口④口口 |①---|
口口③口 |②---|
口②口口 |③---|
口口①口 |④---|
56
口口①口 |①---|
口②口口 |②---|
口口③口 |③---|
口④口口 |④---|
57
口④口口 |①---|
口口③口 |②---|
口②口口 |③---|
口口①口 |④---|
58
口口口① |①---|
②口口口 |②---|
口口口③ |③---|
④口口口 |④---|
59
④口口口 |①---|
口口口③ |②---|
②口口口 |③---|
口口口① |④---|
60
口口口① |①---|
②口口口 |②---|
口口口③ |③---|
④口口口 |④---|
61
④口口口 |①---|
口口口③ |②---|
②口口口 |③---|
口口口① |④---|
62
口口口口 |①---|
口①①口 |----|
口口口口 |----|
口口口口 |----|
63
口口口口 |----|
口口口口 |----|
口口口口 |----|
口口口口 |----|
64
口口口口 |----|
口口口口 |----|
口口口口 |----|
口口口口 |----|
65
口口口口 |----|
口口口口 |----|
口口口口 |----|
口口口口 |----|
66
口口口口 |①---|
①②③④ |②---|
口口口口 |③---|
口口口口 |④---|
67
口口口口 |①---|
口口口口 |②---|
④③②① |③---|
口口口口 |④---|
68
口口口口 |①---|
口①①口 |----|
口口口口 |----|
口口口口 |----|
69
口口口口 |①---|
①口口① |----|
②口口② |②---|
口口口口 |----|
70
口口口口 |①---|
①②口口 |----|
口口③口 |②---|
口口口口 |--③-|
71
口口口口 |----|
口口口口 |--①-|
口口口口 |----|
口①口口 |----|
72
口口口口 |①---|
口口口口 |----|
口①①口 |----|
口口口口 |----|
73
口口口口 |①---|
口①①口 |----|
口口口口 |----|
口口口口 |----|
74
口口口口 |①---|
①②口口 |----|
口口③口 |②---|
口口口口 |--③-|
75
口口口口 |----|
口口口口 |----|
口①口口 |①---|
口口口口 |----|
76
口口口口 |①---|
口口口口 |----|
口口①口 |----|
口口口口 |----|
77
口口口口 |①---|
①口口② |②---|
③口口④ |③---|
口口口口 |④---|
78
口口口口 |①---|
①②口口 |----|
口口③口 |②---|
口口口口 |--③-|
79
口口口口 |----|
口口口口 |----|
口口口口 |①---|
口①①口 |----|
80
①口口① |①---|
口口口口 |----|
②口口② |②---|
口口口口 |----|
81
口口口口 |①---|
②口口① |②---|
④口口③ |③---|
口口口口 |④---|
82
口②口① |①---|
口③口口 |--②-|
口④口口 |--③-|
口口口口 |--④-|
83
口口口口 |①---|
口口口口 |----|
口口口口 |----|
口口①口 |----|
84
①口②口 |①---|
口口③口 |--②-|
口口④口 |--③-|
口口口口 |--④-|
85
口口口口 |①---|
口口口口 |----|
口口口口 |----|
口①口口 |----|
86
口口口④ |①---|
口口③口 |②---|
口②口口 |③---|
①口口口 |④---|
87
①口口口 |①---|
口②口口 |②---|
口口③口 |③---|
口口口④ |④---|
88
口口口口 |①---|
口口口口 |②---|
口③④口 |③---|
口①②口 |④---|
89
口③④口 |①---|
口①②口 |②---|
口口口口 |③---|
口口口口 |④---|
90
口②口① |①---|
口③口口 |--②-|
口④口口 |--③-|
口口口口 |--④-|
91
口口口口 |①---|
口口口口 |----|
口口口口 |----|
口口①口 |----|
92
①口②口 |①---|
口口③口 |--②-|
口口④口 |--③-|
口口口口 |--④-|
93
口口口口 |①---|
口口口口 |----|
口口口口 |----|
口①口口 |----|
94
口口口④ |①---|
口口③口 |②---|
口②口口 |③---|
①口口口 |④---|
95
①口口口 |①---|
口②口口 |②---|
口口③口 |③---|
口口口④ |④---|
96
口口口口 |①---|
口口口口 |②---|
口③④口 |③---|
口①②口 |④---|
97
口③④口 |①---|
口①②口 |②---|
口口口口 |③---|
口口口口 |④---|
98
口口口口 |①---|
口口口口 |----|
口①①口 |----|
口口口口 |----|


不確定度: 0

最終更新:2014年05月04日 22:19