Nature (jubeat version)
Mutsuhiko Izumi

ADVANCED

Level: 9
BPM: 230
Notes: 590

BPM: 230
1
口口口口 |----|
口口口口 |----|
口口口口 |----|
口口口口 |----|
2
③口②② |①---|
口口⑤⑤ |②---|
④口口口 |③---④-|
①口口口 |⑤---|
3
口③口口 |①---|
口口口口 |②---|
口④②② |③---④-|
口①⑤⑤ |⑤---|
4
③口②② |①---|
口口⑤⑤ |②---|
④口口口 |③---④-|
①口口口 |⑤---|
5
口③口口 |①---|
口口口口 |②---|
口④②② |③---④-|
口①⑤⑤ |⑤---|
6
③口②② |①---|
口口⑤⑤ |②---|
④口口口 |③---④-|
①口口口 |⑤---|
7
口③口口 |①---|
口口口口 |②---|
口④②② |③---④-|
口①⑤⑤ |⑤---|
8
③口②② |①---|
口口⑤⑤ |②---|
④口口口 |③---④-|
①口口口 |⑤---|
9
口口口③ |①---|
④口口口 |②---|
口口②② |③-④-⑤-|
⑥①口⑤ |⑥---|
10
②②③口 |①---|
⑤⑤口口 |②---|
口口④口 |③---④-|
口口①口 |⑤---|
11
口口口③ |①---|
口口口口 |②---|
②②口④ |③---④-|
⑤⑤口① |⑤---|
12
②②③口 |①---|
⑤⑤口口 |②---|
口口④口 |③---④-|
口口①口 |⑤---|
13
口口口③ |①---|
口口口口 |②---|
②②口④ |③---④-|
⑤⑤口① |⑤---|
14
②②③口 |①---|
⑤⑤口口 |②---|
口口④口 |③---④-|
口口①口 |⑤---|
15
口口口③ |①---|
口口口口 |②---|
②②口④ |③---④-|
⑤⑤口① |⑤---|
16
②②③口 |①---|
⑤⑤口口 |②---|
口口④口 |③---④-|
口口①口 |⑤---|
17
口口口③ |①---|
口口口口 |②---|
②②口④ |③---④-|
⑤⑤口① |⑤---|
18
③③口口 |①---|
口②②口 |--②-|
口口口口 |----|
口口①① |③---|
19
口口口口 |----|
口口口口 |----|
口②②口 |①---|
①①口口 |②---|
20
口口①① |①---|
口②②口 |--②-|
口口口口 |----|
口口口口 |----|
21
口口口口 |----|
口口口口 |----|
口口口口 |----|
口口口口 |----|
22
③③口口 |①---|
口②②口 |--②-|
口口口口 |----|
口口①① |③---|
23
口口口口 |----|
口口口口 |----|
口②②口 |①---|
①①口口 |②---|
24
②口口② |①---|
口口口口 |--②-|
口口口口 |----|
口口①① |----|
25
口口口口 |----|
①②③口 |----|
④⑤⑥口 |①-②-③-|
口口口口 |④-⑤-⑥-|
26
口口口口 |①---|
口口口口 |----|
口口口① |----|
②口口口 |②---|
27
口②口口 |----|
口④③口 |----|
口口口口 |①---②-|
口口口① |③---④-|
28
口口口口 |①---|
口口口口 |----|
口口①口 |----|
②口口口 |②---|
29
口口口口 |----|
口口口口 |----|
口口口口 |----|
口口口口 |----|
30
口口②② |①---|
口口口② |----|
口口口① |②---|
口口①① |----|
31
①①口口 |①---|
①口口口 |----|
②口口口 |②---|
②②口口 |----|
32
口口口② |①---|
口①①口 |----|
③①①口 |----|
口口口口 |②---③-|
33
口口口口 |①---|
口口口口 |----|
口口口口 |----|
口口口① |----|
34
③③口口 |①---|
口②②口 |--②-|
口口口口 |----|
口口①① |③---|
35
口口口口 |----|
口口口口 |----|
口②②口 |①---|
①①口口 |②---|
36
口口①① |①---|
口②②口 |--②-|
口口口口 |----|
口口口口 |----|
37
口口口口 |----|
口口口口 |----|
口口口口 |----|
口口口口 |----|
38
③③口口 |①---|
口②②口 |--②-|
口口口口 |----|
口口①① |③---|
39
口口口口 |----|
口口口口 |----|
口②②口 |①---|
①①口口 |②---|
40
②口口② |①---|
口口口口 |--②-|
口口口口 |----|
口口①① |----|
41
口口口口 |----|
①②③口 |----|
④⑤⑥口 |①-②-③-|
口口口口 |④-⑤-⑥-|
42
口口口口 |①---|
口口口口 |----|
口口口① |----|
②口口口 |②---|
43
口②口口 |----|
口④③口 |----|
口口口口 |①---②-|
口口口① |③---④-|
44
口口口口 |①---|
口口口口 |----|
口口①口 |----|
②口口口 |②---|
45
口口口口 |----|
口口口口 |----|
口口口口 |----|
口口口口 |----|
46
口口②② |①---|
口口口② |----|
口口口① |②---|
口口①① |----|
47
①①口口 |①---|
①口口口 |----|
②口口口 |②---|
②②口口 |----|
48
口口口口 |①---|
口①①口 |----|
口①①口 |----|
口口口口 |----|
49
口口口口 |----|
口口口口 |----|
口口口口 |----|
口口口口 |----|
50
口口口口 |①---|
口口口口 |----|
③口口② |----|
口①①口 |②---③-|
51
口①①口 |①---|
③口口② |----|
口口口口 |----|
口口口口 |②---③-|
52
口①①口 |①---|
口口口口 |----|
口②②口 |②---|
口口口口 |----|
53
⑦口口⑧ |①-②-③-|
⑦⑤⑥⑧ |④-⑤-⑥-|
口口口口 |⑦---|
①②③④ |⑧---|
54
口口口口 |①---|
口口口口 |----|
②①①③ |----|
口口口口 |②---③-|
55
口①①口 |①---|
②口口③ |----|
口口口口 |----|
口口口口 |②---③-|
56
口①①口 |①---|
口口口口 |----|
口②②口 |②---|
口口口口 |----|
57
⑦口口⑧ |①-②-③-|
⑦⑤⑥⑧ |④-⑤-⑥-|
口口口口 |⑦---|
①②③④ |⑧---|
58
⑦⑧⑨⑩ |①-②-③-|
口⑪⑫口 |④-⑤-⑥-|
①②③④ |⑦-⑧-⑨-|
口⑤⑥口 |⑩-⑪-⑫-|
59
⑦⑧⑨⑩ |①-②-③-|
口⑪⑫口 |④-⑤-⑥-|
①②③④ |⑦-⑧-⑨-|
口⑤⑥口 |⑩-⑪-⑫-|
60
⑦⑧⑨⑩ |①-②-③-|
口⑪⑫口 |④-⑤-⑥-|
①②③④ |⑦-⑧-⑨-|
口⑤⑥口 |⑩-⑪-⑫-|
61
口口口口 |①-②-③-|
⑦口口口 |④-⑤-⑥-|
①②③④ |⑦---|
口⑤⑥口 |----|
62
口口口① |①---|
口口口① |----|
口口口口 |----|
口口口口 |----|
63
①口口口 |----|
口口口② |①---|
③口口口 |②---|
④口口口 |③---④-|
64
口⑧⑨口 |①-②-③-|
④⑤⑥⑦ |④-⑤-⑥-|
口口口口 |⑦---⑧-|
口①②③ |⑨---|
65
口口口② |①---|
口口口口 |----|
口口口口 |----|
①口口口 |----②-|
66
口④②口 |----①-|
口口口口 |----②-|
③③口口 |----③-|
①①口口 |----④-|
67
②口口④ |----①-|
口口口口 |----②-|
口口③③ |----③-|
口口①① |----④-|
68
口口②口 |----①-|
口口口口 |----②-|
③③口口 |----③-|
①①口口 |----|
69
口口口口 |①---|
口口口口 |----|
口口③① |----|
②口口① |②-③-|
70
①口口口 |①---|
口口口② |----|
口口口口 |②---③-|
④口口③ |--④---|
71
③②①口 |①-②-③-|
⑥⑤④口 |④-⑤-⑥-|
⑨⑧⑦口 |⑦-⑧-⑨-|
⑫⑪⑩口 |⑩-⑪-⑫-|
72
口③②① |①-②-③-|
口⑥⑤④ |④-⑤-⑥-|
口口口⑦ |⑦---|
口口口口 |----|
73
口⑤⑥口 |----①-|
口口口口 |--②---|
①②③④ |③---④-|
①②③④ |--⑤-⑥-|
74
⑪⑫口① |①-②-③-|
②③④口 |④-⑤-⑥-|
⑤⑥⑦口 |⑦-⑧-⑨-|
口⑧⑨⑩ |⑩-⑪-⑫-|
75
⑪⑫①口 |①-②-③-|
②③④口 |④-⑤-⑥-|
⑤⑥⑦口 |⑦-⑧-⑨-|
⑧⑨⑩口 |⑩-⑪-⑫-|
76
口口①口 |①-②-③-|
②③④口 |④-⑤-⑥-|
⑤⑥⑦口 |⑦-⑧-⑨-|
⑧⑨⑩口 |⑩---|
77
口口口① |----①-|
口②口口 |--②---|
口口口③ |③---④-|
④口口⑤ |--⑤---|
78
口②①口 |①---|
②口口① |----|
口口口③ |②---|
口口③口 |----③-|
79
②口口口 |----|
口②口口 |----①-|
①口口口 |----②-|
口①口口 |----|
80
口口口① |----①-|
口口①口 |----|
口口②口 |----②-|
口口口② |----|
81
口口口口 |----①-|
口口口口 |----|
口①口② |----②-|
①口②口 |----|
82
①②③口 |①-②-③-|
口⑥⑤④ |④-⑤-⑥-|
⑦⑧⑨口 |⑦-⑧-⑨-|
口⑫⑪⑩ |⑩-⑪-⑫-|
83
①②③口 |①-②-③-|
口⑥⑤④ |④-⑤-⑥-|
⑦⑧⑨口 |⑦-⑧-⑨-|
口⑫⑪⑩ |⑩-⑪-⑫-|
84
口②②① |①---|
口口口口 |----|
口口口口 |②---|
口口口口 |----|
85
⑨口口⑧ |①-②-③-|
①⑨口口 |④-⑤-⑥-|
口⑦⑥⑤ |⑦-⑧---|
口④③② |----⑨-|
86
口口①口 |----|
口口口① |----①-|
口口口口 |----|
口口口口 |----|
87
口口口口 |①-②-③-|
①②③口 |④-⑤-⑥-|
④⑤⑥口 |⑦-⑧-⑨-|
⑦⑧⑨⑩ |⑩---|
88
口③②① |①-②-③-|
口⑥⑤④ |④-⑤-⑥-|
口⑨⑧⑦ |⑦-⑧-⑨-|
口⑫⑪⑩ |⑩-⑪-⑫-|
89
④③②① |①-②-③-|
⑥口口⑤ |④---|
⑥口口⑤ |----⑤-|
口口口口 |----⑥-|
90
口③⑥口 |--①-②-|
口④⑤口 |--③-④-|
口⑦②口 |--⑤-⑥-|
口口①口 |--⑦---|
91
④口口① |①-②-③-|
⑤口口② |④-⑤-⑥-|
⑥口口③ |⑦---|
口口⑦口 |----|
92
口口口口 |①---|
口口口口 |----|
口①②口 |②---|
①口口② |----|
93
口③口④ |----①-|
②口口口 |--②---|
口口口口 |③---|
口①口口 |--④---|
94
口⑥口口 |①-②-|
口口①⑤ |③-④-|
⑧④口口 |⑤-⑥-|
②口⑦③ |⑦-⑧-|
95
④口口③ |①-②-|
②口口⑤ |③-④-|
口⑥①口 |⑤-⑥-|
⑧口口⑦ |⑦-⑧-|
96
口③③口 |①---|
口②①口 |②---|
②口口① |③---|
口④④口 |④---|
97
③口口③ |①---|
④②②④ |②---|
⑤①①⑤ |③-④-⑤-|
⑥口口⑥ |⑥---|
98
口③口口 |①---|
口口口口 |--②-|
口口②口 |----|
口①口口 |③---|
99
口口口口 |----|
②口口口 |----|
口口口① |①---|
口口口口 |②---|
100
口口口① |①---|
口口口口 |--②-|
口口口口 |----|
口②口口 |----|
101
口口口口 |----|
口口口口 |----|
口口口口 |----|
口口口口 |----|
102
口口口口 |①---|
口口口③ |--②-|
口口②口 |----|
①口口口 |③---|
103
口口口口 |----|
口口口口 |----|
口②口口 |①---|
口口口① |②---|
104
②口口口 |①---|
口口①口 |--②-|
口口口口 |----|
口口口口 |----|

BPM: 170
105
口口口口 |----|
口口口口 |----|
口口口口 |----|
口口口口 |----|

BPM: 180
106
口口口口 |①---|
口口口口
口口口口
口口口①

BPM: 170

口口口口
口口口口 |--②-|
口口②口
口口口口

BPM: 150

③口口口
口口口口
口口口口 |----|
口口口口 |③---|

不確定度: 0

最終更新:2014年12月11日 22:32