Nature (jubeat version)
Mutsuhiko Izumi

EXTREME

Level: 10
BPM: 230
Notes: 756

BPM: 230
1
口口口口 |----|
口口口口 |----|
口口口口 |----|
口口口口 |----|
2
⑤⑥④③ |①---②-|
⑥口口④ |③---④-|
②口口⑧ |⑤---⑥-|
①②⑧⑦ |⑦---⑧-|
3
口⑥④口 |①---②-|
⑥⑤③④ |③---④-|
②①⑦⑧ |⑤---⑥-|
口②⑧口 |⑦---⑧-|
4
⑤⑥④③ |①---②-|
⑥口口④ |③---④-|
②口口⑧ |⑤---⑥-|
①②⑧⑦ |⑦---⑧-|
5
口⑥④口 |①---②-|
⑥⑤③④ |③---④-|
②①⑦⑧ |⑤---⑥-|
口②⑧口 |⑦---⑧-|
6
⑤⑥④③ |①---②-|
⑥口口④ |③---④-|
②口口⑧ |⑤---⑥-|
①②⑧⑦ |⑦---⑧-|
7
口⑥④口 |①---②-|
⑥⑤③④ |③---④-|
②①⑦⑧ |⑤---⑥-|
口②⑧口 |⑦---⑧-|
8
⑤⑥④③ |①---②-|
⑥口口④ |③---④-|
②口口⑧ |⑤---⑥-|
①②⑧⑦ |⑦---⑧-|
9
⑤口④口 |①---②-|
口⑥③④ |③---④-|
②①⑦口 |⑤-⑥-⑦-|
口②口⑧ |⑧---|
10
⑤⑥④③ |①---②-|
⑥口口④ |③---④-|
②口口⑧ |⑤---⑥-|
①②⑧⑦ |⑦---⑧-|
11
口⑥④口 |①---②-|
⑥⑤③④ |③---④-|
②①⑦⑧ |⑤---⑥-|
口②⑧口 |⑦---⑧-|
12
⑤⑥④③ |①---②-|
⑥口口④ |③---④-|
②口口⑧ |⑤---⑥-|
①②⑧⑦ |⑦---⑧-|
13
口⑥④口 |①---②-|
⑥⑤③④ |③---④-|
②①⑦⑧ |⑤---⑥-|
口②⑧口 |⑦---⑧-|
14
⑤⑥④③ |①---②-|
⑥口口④ |③---④-|
②口口⑧ |⑤---⑥-|
①②⑧⑦ |⑦---⑧-|
15
口⑥④口 |①---②-|
⑥⑤③④ |③---④-|
②①⑦⑧ |⑤---⑥-|
口②⑧口 |⑦---⑧-|
16
⑤⑥④③ |①---②-|
⑥口口④ |③---④-|
②口口⑧ |⑤---⑥-|
①②⑧⑦ |⑦---⑧-|
17
口⑥④口 |①---②-|
⑥⑤③④ |③---④-|
②①⑦⑧ |⑤---⑥-|
口②⑧口 |⑦---⑧-|
18
③③③③ |①---|
口口口口 |--②-|
②②口口 |----|
①口口口 |③---|
19
口口口口 |----|
口口①口 |----|
口口口口 |①---|
口②②② |②---|
20
①①口口 |①---|
口口口口 |--②-|
②②②口 |----|
口口口口 |----|
21
口口口口 |----|
口口口口 |----|
口口口口 |----|
口口口口 |----|
22
③③③③ |①---|
口口口口 |--②-|
口口②② |----|
口口口① |③---|
23
口口口口 |----|
口②口口 |----|
口口口口 |①---|
①①①口 |②---|
24
②②②② |①---|
口口口口 |--②-|
口①①口 |----|
口口口口 |----|
25
口口口口 |----|
口口⑥③ |----|
口⑤②口 |①-②-③-|
④①口口 |④-⑤-⑥-|
26
口口口① |①---|
口口口口 |----|
口口口口 |----|
口口口② |②---|
27
③口口④ |----|
口口口口 |----|
口口口② |①---②-|
①口口口 |③---④-|
28
口口口口 |①---|
口口口口 |----|
①②②口 |----|
口口口口 |②---|
29
口口口口 |----|
口口口口 |----|
口口口口 |----|
口口口口 |----|
30
口口口口 |①---|
口口口口 |----|
口口口② |②---|
口口②① |----|
31
口口口② |①---|
口口②① |----|
口②①口 |②---|
②①口口 |----|
32
①①②口 |①---|
①口口口 |----|
口③口口 |----|
口口口口 |②---③-|
33
口口口口 |①---|
口口口口 |----|
口口口口 |----|
口口①口 |----|
34
③③③③ |①---|
口口口口 |--②-|
②②口口 |----|
①口口口 |③---|
35
口口口口 |----|
口口①口 |----|
口口口口 |①---|
口②②② |②---|
36
①①口口 |①---|
口口口口 |--②-|
②②②口 |----|
口口口口 |----|
37
口口口口 |----|
口口口口 |----|
口口口口 |----|
口口口口 |----|
38
③③③③ |①---|
口口口口 |--②-|
口口②② |----|
口口口① |③---|
39
口口口口 |----|
口②口口 |----|
口口口口 |①---|
①①①口 |②---|
40
②②②② |①---|
口口口口 |--②-|
口①①口 |----|
口口口口 |----|
41
口口口口 |----|
口口⑥③ |----|
口⑤②口 |①-②-③-|
④①口口 |④-⑤-⑥-|
42
口口口① |①---|
口口口口 |----|
口口口口 |----|
口口口② |②---|
43
③口口④ |----|
口口口口 |----|
口口口② |①---②-|
①口口口 |③---④-|
44
口口口口 |①---|
口口口口 |----|
①②②口 |----|
口口口口 |②---|
45
口口口口 |----|
口口口口 |----|
口口口口 |----|
口口口口 |----|
46
口口口口 |①---|
口口口口 |----|
口口口② |②---|
口口②① |----|
47
口口口② |①---|
口口②① |----|
口②①口 |②---|
②①口口 |----|
48
①①口口 |①---|
①口口口 |----|
口口口口 |----|
口口口口 |----|
49
口口口口 |----|
口口口口 |----|
口口口口 |----|
口口口口 |----|
50
口②口② |①---|
口①③口 |----|
口口②口 |----|
①口①口 |②---③-|
51
口口①口 |①---|
口②口② |----|
口①③① |----|
口口②口 |②---③-|
52
②口②口 |①---|
口口①口 |----|
口②口口 |②---|
口①口① |----|
53
⑧口⑧④ |①-②-③-|
③口⑥口 |④-⑤-⑥-|
⑤口②口 |⑦---|
①⑦口⑦ |⑧---|
54
口②口② |①---|
口①③口 |----|
口口②口 |----|
①口①口 |②---③-|
55
口口①口 |①---|
口②口② |----|
口①③① |----|
口口②口 |②---③-|
56
②口②口 |①---|
口口①口 |----|
口②口口 |②---|
口①口① |----|
57
口口口④ |①-②-③-|
③⑤⑧⑧ |④-⑤-⑥-|
⑦口②口 |⑦---|
①⑦口⑥ |⑧---|
58
①①口⑧ |①-②-③-|
⑦⑦口⑫ |④-⑤-⑥-|
⑨③②⑥ |⑦-⑧-⑨-|
⑤⑪④⑩ |⑩-⑪-⑫-|
59
①①②⑩ |①-②-③-|
⑦⑦④口 |④-⑤-⑥-|
⑨③⑫⑧ |⑦-⑧-⑨-|
⑤⑪⑥口 |⑩-⑪-⑫-|
60
①①②⑫ |①-②-③-|
⑦⑦⑩④ |④-⑤-⑥-|
⑨③口口 |⑦-⑧-⑨-|
⑤⑪⑧⑥ |⑩-⑪-⑫-|
61
①①⑥口 |①-②-③-|
⑦⑦口口 |④-⑤-⑥-|
口③④② |⑦---|
⑤口口口 |----|
62
口口口① |①---|
口口口口 |----|
口口口口 |----|
口口口口 |----|
63
①口口④ |----|
口口口口 |①---|
口口口② |②---|
③口口口 |③---④-|
64
口⑧⑨口 |①-②-③-|
①②③④ |④-⑤-⑥-|
⑤⑥⑦口 |⑦---⑧-|
口口口口 |⑨---|
65
口口口② |①---|
口口口口 |----|
口口口口 |----|
①口口口 |----②-|
66
口口口口 |----①-|
①②③口 |②-③-④-|
⑩⑥⑤④ |⑤-⑥-⑦-|
⑦⑧⑨口 |⑧-⑨-⑩-|
67
口③②① |----|
④⑤⑥口 |①-②-③-|
口⑨⑧⑦ |④-⑤-⑥-|
口口口口 |⑦-⑧-⑨-|
68
④口口⑦ |①-②-③-|
⑧⑩口⑤ |④-⑤-⑥-|
⑥口口口 |⑦-⑧-⑨-|
①②③⑨ |⑩---|
69
口口口口 |----|
口口口口 |----|
口口口口 |----|
①口口② |①-②-|
70
口①①② |①---|
③口口口 |----|
口口口④ |②---③-|
口口口口 |--④---|
71
口⑦⑩口 |①-②-③-|
⑪①④⑧ |④-⑤-⑥-|
⑤口②⑫ |⑦-⑧-⑨-|
⑨③口⑥ |⑩-⑪-⑫-|
72
①⑦口④ |①-②-③-|
口⑤口口 |④-⑤-⑥-|
口口②口 |⑦---|
口③口⑥ |----|
73
口④③口 |----①-|
④口⑤③ |--②---|
②⑥口① |③---④-|
口②①口 |--⑤-⑥-|
74
⑥口⑨⑤ |①-②-③-|
⑩②口口 |④-⑤-⑥-|
⑧口③⑦ |⑦-⑧-⑨-|
④⑫⑪① |⑩-⑪-⑫-|
75
⑩②⑨口 |①-②-③-|
口⑥⑤① |④-⑤-⑥-|
口④③⑪ |⑦-⑧-⑨-|
⑧⑫口⑦ |⑩-⑪-⑫-|
76
口⑥口① |①-②-③-|
②⑩⑤⑨ |④-⑤-⑥-|
④⑫⑦口 |⑦-⑧-⑨-|
⑧口③⑪ |⑩-⑪-⑫-|
77
②口①⑤ |①-②-③-|
口口⑥口 |--④---|
口口口③ |⑤---⑥-|
口口④⑦ |--⑦---|
78
②②口口 |①---|
①①③③ |----②-|
①①③③ |----|
②②口口 |----③-|
79
口口④④ |----|
口口口口 |----①-|
⑤口口口 |②-③-④-|
口③②① |----⑤-|
80
③③⑦⑦ |①-②-③-|
口⑥⑤④ |----④-|
口①②口 |⑤-⑥-⑦-|
⑧口口口 |----⑧-|
81
③③⑦⑦ |①-②-③-|
口⑧口⑨ |----④-|
口⑥⑤④ |⑤-⑥-⑦-|
口①②口 |--⑧-⑨-|
82
⑦口⑩口 |①-②-③-|
①⑪④口 |④-⑤-⑥-|
⑤口⑧⑫ |⑦-⑧-⑨-|
⑨③②⑥ |⑩-⑪-⑫-|
83
⑪③⑫② |①-②-③-|
⑦口⑥④ |④-⑤-⑥-|
⑨①⑩口 |⑦-⑧-⑨-|
口⑤⑧口 |⑩-⑪-⑫-|
84
口②口③ |①---|
④①⑤口 |--②-③-|
口⑥口⑦ |④-⑤-⑥-|
⑧口⑨口 |⑦-⑧-⑨-|
85
①口⑧⑨ |①-②-③-|
口⑤口④ |④-⑤-⑥-|
⑦口②⑨ |⑦-⑧---|
口③口⑥ |----⑨-|
86
口口②口 |----①-|
③口口② |----|
口③口④ |--②-③-|
①①口口 |----④-|
87
①口口④ |①-②-③-|
⑨⑤②口 |④-⑤-⑥-|
③口⑧口 |⑦-⑧-⑨-|
口⑦⑩⑥ |⑩---|
88
口①⑥口 |①-②-③-|
⑪⑦⑩④ |④-⑤-⑥-|
⑨③⑫② |⑦-⑧-⑨-|
⑤口口⑧ |⑩-⑪-⑫-|
89
⑤①口⑥ |①-②-③-|
口口口④ |④---|
口③口② |----⑤-|
口⑤⑥口 |----⑥-|
90
⑦①⑥口 |--①-②-|
④⑤②③ |--③-④-|
①④③⑥ |--⑤-⑥-|
⑤口口② |----⑦-|
91
口④⑪③ |①-②-③-|
⑧⑫⑤⑦ |④-⑤-⑥-|
⑥口口口 |⑦-⑧-⑨-|
⑩②①⑨ |⑩-⑪-⑫-|
92
口口口口 |①-②---|
口口口口 |----|
口口①③ |③---|
口②③口 |----|
93
口③口口 |----①-|
③口口② |--②---|
口口口口 |③---|
①口口④ |--④---|
94
③口口口 |①-②-|
口口④口 |③-④-|
⑤口②⑥ |⑤-⑥-|
⑦①口⑧ |⑦-⑧-|
95
口①口口 |①-②-|
⑧④⑦口 |③-④-|
口⑥③口 |⑤-⑥-|
口②⑤口 |⑦-⑧-|
96
①③③① |①---|
口④④口 |②---|
②口口② |③---|
口口口口 |④---|
97
③口口③ |①---|
④口口④ |②---|
⑤①①⑤ |③-④-⑤-|
⑥②②⑥ |⑥---|
98
口口③口 |①---|
口②口口 |--②-|
口口①口 |----|
口口口口 |③---|
99
口口口口 |----|
口口口口 |----|
口②口口 |①---|
口口口① |②---|
100
口口口① |①---|
口口口口 |--②-|
口口口口 |----|
口口②口 |----|
101
口口口口 |----|
口口口口 |----|
口口口口 |----|
口口口口 |----|
102
③口口口 |①---|
口口②口 |--②-|
口口口口 |----|
①口口口 |③---|
103
口口口口 |----|
口②口口 |----|
口口口口 |①---|
口口①口 |②---|
104
口口②口 |①---|
口口口口 |--②-|
口口口① |----|
口口口口 |----|

BPM: 170
105
口口口口 |----|
口口口口 |----|
口口口口 |----|
口口口口 |----|

BPM: 180
106
口口口口 |①---|
口口口口
口口口口
①口口口

BPM: 170

口口口口
口口口口 |--②-|
口②口口
口口口口

BPM: 150

口口口③
口口口口
口口口口 |----|
口口口口 |③---|

不確定度: 0

最終更新:2014年12月11日 22:31