encounter
猫叉Master+

BASIC

Level: 5
BPM: 190
Notes: 514

1
口口口口 |----|
口口口口 |----|
口口口口 |----|
口口口口 |----|
2
口口口口 |①---|
口口口口 |----|
①口口② |②---|
①①②② |----|
3
口口口口 |①---|
口口口口 |②---|
④③口口 |③---|
②①口口 |④---|
4
④③口口 |①---|
②①口口 |②---|
口口口口 |③---|
口口口口 |④---|
5
口口口口 |①---|
口口口口 |②---|
口口③④ |③---|
口口①② |④---|
6
口口③④ |①---|
口口①② |②---|
口口口口 |③---|
口口口口 |④---|
7
④口口口 |①---|
口③口口 |②---|
②口口口 |③---|
口①口口 |④---|
8
口①口口 |①---|
②口口口 |②---|
口③口口 |③---|
④口口口 |④---|
9
口口口④ |①---|
口口③口 |②---|
口口口② |③---|
口口①口 |④---|
10
口口①口 |①---|
口口口② |②---|
口口③口 |③---|
口口口④ |④---|
11
口口口口 |①---|
④②口口 |②---|
口口口口 |③---|
①③口口 |④---|
12
④②口口 |①---|
口口口口 |②---|
①③口口 |③---|
口口口口 |④---|
13
口口口口 |①---|
口口②④ |②---|
口口口口 |③---|
口口③① |④---|
14
口口②④ |①---|
口口口口 |②---|
口口③① |③---|
口口口口 |④---|
15
口②口口 |①---|
③口口口 |②---|
口④口口 |③---|
①口口口 |④---|
16
②口口口 |①---|
口③口口 |②---|
④口口口 |③---|
口①口口 |④---|
17
口口口② |①---|
口口③口 |②---|
口口口④ |③---|
口口口① |④---|
18
口①①口 |①---|
②口口② |②---|
口③③口 |③---|
④口口④ |④---|
19
①口口② |①---|
③①②口 |--②-|
①③口② |----|
③口口口 |③---|
20
②口口② |--①-|
口②②① |----|
口口①口 |②---|
口口口① |----|
21
口①②口 |①---|
①③口② |--②-|
③①②口 |----|
口③口口 |③---|
22
口口口口 |--①-|
口口①口 |----|
口②②① |②---|
②口①② |----|
23
①口口② |①---|
③①②口 |--②-|
①③口② |----|
③口口口 |③---|
24
②口口② |--①-|
口②②① |----|
口口①口 |②---|
口口口① |----|
25
口①②口 |①---|
①③口② |--②-|
③①②口 |----|
口③口口 |③---|
26
②口口② |--①-|
口口①口 |----|
口②②① |②---|
口口①口 |----|
27
口①③口 |①---|
②口口口 |--②-|
①口口③ |----|
口②口口 |③---|
28
②口口口 |--①-|
口③口① |----|
口②口口 |②---|
③口①口 |--③-|
29
口口口① |----|
口口②口 |①---|
口口①口 |--②-|
口口口② |----|
30
口口口口 |①---|
①口口① |--②-|
口③③口 |----|
口②②口 |③---|
31
①口口① |①---|
口口口口 |----|
口口口口 |----|
口口口口 |----|
32
口口口口 |----|
口口口口 |----|
口口口口 |----|
口口口口 |----|
33
口口口口 |①---②-|
口口口口 |--③---|
口口④③ |④---|
①②口口 |----|
34
口口口口 |----|
口口口口 |----|
口口口口 |----|
口口口口 |----|
35
口口口口 |①---|
③口口口 |--②-|
口②②口 |----|
口①①口 |③---|
36
①②③④ |①---|
口口口口 |②---|
口口口口 |③---|
口口口口 |④---|
37
口口口口 |①---|
口口口③ |--②-|
口②②口 |----|
口①①口 |③---|
38
④③②① |①---|
口口口口 |②---|
口口口口 |③---|
口口口口 |④---|
39
口口口口 |①---|
③口口口 |--②-|
口②②口 |----|
口①①口 |③---|
40
口①②口 |①---|
口口口③ |②---|
口口口④ |③---|
口口口口 |④---|
41
口口口口 |①---|
口口口口 |--②-|
口②②口 |----|
口①①口 |----|
42
②口口② |①---|
①口口① |--②-|
口口口口 |----|
口口口口 |----|
43
口口口口 |①---|
③口口口 |--②-|
口②②口 |----|
口①①口 |③---|
44
①②③④ |①---|
口口口口 |②---|
口口口口 |③---|
口口口口 |④---|
45
口口口口 |①---|
口口口③ |--②-|
口②②口 |----|
口①①口 |③---|
46
④③②① |①---|
口口口口 |②---|
口口口口 |③---|
口口口口 |④---|
47
口口口口 |①---|
③口口口 |--②-|
口②②口 |----|
口①①口 |③---|
48
口①②口 |①---|
口口口③ |②---|
口口口④ |③---|
口口口口 |④---|
49
口口口口 |①---|
口口口口 |--②-|
口②②口 |----|
口①①口 |----|
50
②口口② |①---|
①口口① |--②-|
口口口口 |----|
口口口口 |----|
51
口口⑤④ |①--②|
口口⑤④ |--③-|
①②③口 |----|
①②③口 |④--⑤|
52
口①口口 |--①-|
口①口口 |----|
口口口口 |----|
口口口口 |----|
53
④⑤口口 |①--②|
④⑤口口 |--③-|
口③②① |----|
口③②① |④--⑤|
54
口口①口 |--①-|
口口①口 |----|
口口口口 |----|
口口口口 |----|
55
①①口口 |①--②|
②②口口 |--③-|
③③⑤⑤ |----|
口口④④ |④--⑤|
56
口口口口 |--①-|
口口①① |----|
口口口口 |----|
口口口口 |----|
57
口口④④ |①--②|
③③⑤⑤ |--③-|
②②口口 |----|
①①口口 |④--⑤|
58
口口口口 |--①-|
口口口口 |----|
口口①① |----|
口口口口 |----|
59
①②③口 |①--②|
口口⑤④ |--③-|
①②③口 |----|
口口⑤④ |④--⑤|
60
口口口口 |--①-|
口①口口 |----|
口口口口 |----|
口①口口 |----|
61
口③②① |①--②|
④⑤口口 |--③-|
口③②① |----|
④⑤口口 |④--⑤|
62
口口口口 |--①-|
口口①口 |----|
口口口口 |----|
口口①口 |----|
63
①口①口 |①--②|
②口②口 |--③-|
③⑤③⑤ |----|
口④口④ |④--⑤|
64
口口口口 |--①-|
口①口① |----|
口口口口 |----|
口口口口 |----|
65
口①口① |①--②|
口②口② |--③-|
⑤③⑤③ |----|
④口④口 |④--⑤|
66
口口口口 |--①-|
①口①口 |----|
口口口口 |----|
②②口口 |②---|
67
口口口口 |①---|
口口口口 |----|
口口口口 |----|
口口①① |----|
68
口口①口 |----|
口②口口 |----|
口口口口 |--①-|
口口口口 |-②--|
69
口口口口 |①---|
口口口口 |----|
口口①口 |----|
口口口口 |----|
70
口口口口 |①---|
口口口口 |----|
①口口① |----|
口口口口 |----|
71
口口口② |①---|
口口口④ |②---|
③口口口 |③---|
①口口口 |④---|
72
③口口口 |①---|
①口口口 |②---|
口口口② |③---|
口口口④ |④---|
73
口①③口 |①---|
口口口口 |②---|
口口口口 |③---|
口④②口 |④---|
74
口口口① |①---|
口口口③ |②---|
④口口口 |③---|
②口口口 |④---|
75
口口口口 |①---|
口①①口 |----|
口①①口 |----|
口口口口 |----|
76
①口口② |①---|
③①②口 |--②-|
①③口② |----|
③口口口 |③---|
77
②口口② |--①-|
口②②① |----|
③口①③ |②---|
口③③① |③---|
78
口①②口 |①---|
①③口② |--②-|
③①②口 |----|
口③口口 |③---|
79
口③③口 |--①-|
③口①③ |----|
口②②① |②---|
②口①② |③---|
80
①口口② |①---|
③①②口 |--②-|
①③口② |----|
③口口口 |③---|
81
②口口② |--①-|
口②②① |----|
③口①③ |②---|
口③③① |③---|
82
口②②口 |①---|
①口口① |--②-|
口②②口 |----|
①口口① |----|
83
口②②口 |①---|
①口口① |--②-|
口②②口 |----|
①口口① |----|
84
①口口② |①---|
③①②口 |--②-|
①③口② |----|
③口口口 |③---|
85
②口口② |--①-|
口②②① |----|
③口①③ |②---|
口③③① |③---|
86
口①②口 |①---|
①③口② |--②-|
③①②口 |----|
口③口口 |③---|
87
口③③口 |--①-|
③口①③ |----|
口②②① |②---|
②口①② |③---|
88
①口口② |①---|
③①②口 |--②-|
①③口② |----|
③口口口 |③---|
89
②口口② |--①-|
口②②① |----|
③口①③ |②---|
口③③① |③---|
90
口②②口 |①---|
①口口① |--②-|
口②②口 |----|
①口口① |----|
91
②口口② |①---|
①口口① |--②-|
口②②口 |----|
①口口① |----|
92
口口口口 |①---|
口①口口 |----|
口口口口 |----|
口口口口 |----|

不確定度: 0

最終更新:2014年12月26日 19:48