think about you
HaKU

ADVANCED

Level: 5
BPM: 183
Notes: 331

1
口口口口 |----|
口口口口 |----|
口口口口 |----|
口口口口 |----|
2
④④口口 |①---|
口口③口 |②---|
口②口口 |③---|
口口①口 |④---|
3
口口口口 |----|
口口口口 |----|
口口口口 |----|
口口口口 |----|
4
口口④④ |①---|
口③口口 |②---|
口口②口 |③---|
口①口口 |④---|
5
口口口口 |----|
口口口口 |----|
口口口口 |----|
口口口口 |----|
6
④④口口 |①---|
口口③口 |②---|
口②口口 |③---|
口口①口 |④---|
7
口口口口 |----|
口口①口 |----|
口口口口 |----|
口口口口 |①---|
8
口①口口 |----|
口口口口 |----|
口口口口 |----|
口口口口 |①---|
9
口口口口 |①---|
口口①口 |②---|
④②口④ |③---|
口口③口 |④---|
10
①③口② |①---|
①④口口 |②---|
口口口口 |③---|
口口口口 |④---|
11
口口口口 |①---|
口口口口 |②---|
③口②③ |③---|
④口①④ |④---|
12
②口③① |①---|
口口④① |②---|
口口口口 |③---|
口口口口 |④---|
13
口口口口 |①---|
口口口口 |②---|
③②口③ |③---|
④①口④ |④---|
14
①③口② |①---|
①④口口 |②---|
口口口口 |③---|
口口口口 |④---|
15
口口口口 |①---|
口口口口 |②---|
③口②③ |③---|
④口①④ |④---|
16
②口③① |①---|
口口④① |②---|
口口口口 |③---|
口口口口 |④---|
17
口口口口 |①---|
口口口口 |②---|
③②口③ |③---|
④①口④ |④---|
18
口口①口 |①---|
口口口口 |----|
口口口口 |----|
口口口口 |----|
19
口①口口 |①---|
口口口口 |----|
口口口口 |----|
口口口口 |----|
20
口口口口 |①---|
口口口口 |----|
口①口口 |----|
口口口口 |----|
21
口口口口 |①---|
口口口口 |----|
②口①② |②---|
③口口③ |③---|
22
①③口② |①---|
①④口口 |②---|
口口口口 |③---|
口口口口 |④---|
23
口口口口 |①---|
口口口口 |②---|
③口②③ |③---|
④口①④ |④---|
24
②口③① |①---|
口口④① |②---|
口口口口 |③---|
口口口口 |④---|
25
口口口口 |①---|
口口口口 |②---|
③②口③ |③---|
④①口④ |④---|
26
口①①口 |①---|
口口口口 |----|
口口口口 |----|
口口口口 |----|
27
口口口口 |①---|
口①口口 |----|
口口口口 |----|
口口口口 |----|
28
口口口口 |①---|
口口口口 |----|
口口口口 |----|
口①①口 |----|
29
口口口口 |①---|
口②②口 |----|
口口①口 |----|
口口口口 |②---|
30
①③口② |①---|
①④口口 |②---|
口口口口 |③---|
口口口口 |④---|
31
口口口口 |①---|
口口口口 |②---|
③口②③ |③---|
④口①④ |④---|
32
②口③① |①---|
口口④① |②---|
口口口口 |③---|
口口口口 |④---|
33
口口口口 |①---|
口口口口 |②---|
③②口③ |③---|
④①口④ |④---|
34
口①②口 |①---|
口①②口 |----|
口口口口 |②---|
口口口口 |----|
35
口口口口 |①---|
口口口口 |----|
①口口② |②---|
①口口② |----|
36
口口口口 |①---|
①口口② |----|
口①②口 |②---|
口口口口 |----|
37
口口口口 |①---|
口口口口 |----|
②口口② |②---|
③①①③ |③---|
38
①③口② |①---|
①④口口 |②---|
口口口口 |③---|
口口口口 |④---|
39
口口口口 |①---|
口口口口 |②---|
③口②③ |③---|
④口①④ |④---|
40
②口③① |①---|
口口④① |②---|
口口口口 |③---|
口口口口 |④---|
41
口口口口 |①---|
口口口口 |②---|
③②口③ |③---|
④①口④ |④---|
42
①口③口 |①---|
口②口口 |②---|
口口口口 |③---|
口口口口 |----|
43
口口口口 |①---|
口③口① |②---|
口口②口 |③---|
口口口口 |----|
44
口口口④ |①---|
口③口口 |②---|
口口②口 |③---|
①口口口 |④---|
45
①口口口 |①---|
口口②口 |②---|
口③口口 |③---|
口口口④ |④---|
46
口口口口 |①---|
①口口① |----|
①口口① |----|
口口口口 |----|
47
口口口口 |①---|
口口③口 |----|
口②口口 |②---|
口①①口 |③---|
48
口①①口 |①---|
口口口口 |----|
口口口口 |----|
口口口口 |----|
49
口口口口 |①---|
②口口② |----|
③口口③ |②---|
口①①口 |③---|
50
口③口① |①---|
口口②口 |②---|
口口口口 |③---|
口口口口 |----|
51
口口口口 |①---|
①口③口 |②---|
口②口口 |③---|
口口口口 |----|
52
④口口口 |①---|
口口③口 |②---|
口②口口 |③---|
口口口① |④---|
53
口口口① |①---|
口②口口 |②---|
口口③口 |③---|
④口口口 |④---|
54
口口口口 |①---|
①口口① |----|
①口口① |----|
口口口口 |----|
55
口口口口 |①---|
口口口口 |----|
口②②口 |②---|
口①①口 |----|
56
①口口① |①---|
①口口① |----|
口口口口 |----|
口口口口 |----|
57
口口口口 |----|
口②口口 |----|
口口①口 |①---|
口口口口 |②---|
58
①①①① |①---|
口口口口 |----|
口口口口 |----|
口口口口 |----|
59
口③③口 |①---|
①②口口 |--②-|
口口口口 |----|
口口口口 |③---|
60
口口口口 |①---|
口口口口 |----|
口①①口 |----|
口口口口 |----|
61
口③③口 |①---|
口口②① |--②-|
口口口口 |----|
口口口口 |③---|
62
口口口口 |①---|
口口口口 |----|
口①①口 |----|
口口口口 |----|
63
口口口口 |①---|
口①①口 |----|
口口口口 |----|
口口口口 |----|
64
口口口口 |①---|
口口口口 |----|
口口口口 |----|
口①①口 |----|
65
口口口口 |①---|
口口②口 |----|
口①口口 |②---|
口口口口 |----|
66
①①①① |①---|
口口口口 |----|
口口口口 |----|
口口口口 |----|
67
口③③口 |①---|
①②口口 |--②-|
口口口口 |----|
口口口口 |③---|
68
口口口口 |①---|
口口口口 |----|
口①①口 |----|
口口口口 |----|
69
口③③口 |①---|
口口②① |--②-|
口口口口 |----|
口口口口 |③---|
70
口口口口 |①---|
口口口口 |----|
口①①口 |----|
口口口口 |----|
71
口口口口 |①---|
口①①口 |----|
口口口口 |----|
口口口口 |----|
72
口口口口 |①---|
口口口口 |----|
口口口口 |----|
口①①口 |----|
73
口口口口 |----|
口①①口 |----|
口口口口 |①---|
口口口口 |----|
74
口口①① |①---|
口口口口 |----|
口口②② |②---|
口口口口 |----|
75
口口口口 |①---|
①①口口 |----|
口口口口 |②---|
②②口口 |----|
76
①③口② |①---|
①④口口 |②---|
口口口口 |③---|
口口口口 |④---|
77
口口口口 |①---|
口口口口 |②---|
③口②③ |③---|
④口①④ |④---|
78
②口③① |①---|
口口④① |②---|
口口口口 |③---|
口口口口 |④---|
79
口口口口 |①---|
口口口口 |②---|
③②口③ |③---|
④①口④ |④---|
80
①③口② |①---|
①④口口 |②---|
口口口口 |③---|
口口口口 |④---|
81
口口口口 |①---|
口口口口 |②---|
③口②③ |③---|
④口①④ |④---|
82
②口③① |①---|
口口④① |②---|
口口口口 |③---|
口口口口 |④---|
83
口口口口 |①---|
口口口口 |②---|
③②口③ |③---|
④①口④ |④---|
84
口口口口 |①---|
口口口口 |----|
口口口口 |②---|
口②①口 |----|
85
②②②② |①---|
③③③③ |----|
口口①口 |②---|
口口口口 |③---|


不確定度: 0

最終更新:2014年04月25日 17:47