think about you
HaKU

EXTREME

Level: 9
BPM: 183
Notes: 749

1
口口口口 |----|
口口口口 |----|
口口口口 |----|
口口口口 |----|
2
口口口⑥ |①-②-|
⑦口口⑤ |③-④-|
⑧②③口 |⑤-⑥-|
①口口④ |⑦-⑧-|
3
口①口⑤ |①-②-|
口口③口 |③-④-|
⑦②口⑥ |⑤-⑥-|
口⑧④口 |⑦-⑧-|
4
⑥口口口 |①-②-|
⑤口口⑦ |③-④-|
口③②⑧ |⑤-⑥-|
④口口① |⑦-⑧-|
5
⑤口①口 |①-②-|
口③口口 |③-④-|
⑥口②⑦ |⑤-⑥-|
口④⑧口 |⑦-⑧-|
6
口口口⑥ |①-②-|
⑦口口⑤ |③-④-|
⑧②③口 |⑤-⑥-|
①口口④ |⑦-⑧-|
7
口①口⑤ |①-②-|
口口③口 |③-④-|
口②④⑥ |⑤-⑥-|
口⑦⑧口 |⑦-⑧-|
8
口①②⑦ |①-②-|
③口口④ |③-④-|
口⑤⑥口 |⑤-⑥-|
口口口⑧ |⑦-⑧-|
9
③口①口 |①-②-|
口⑤口口 |③-④-|
口⑦⑥口 |⑤-⑥-|
④②口口 |⑦---|
10
口②口口 |①---|
口③⑥① |②---|
①⑤④口 |③-④-|
口口②口 |⑤-⑥-|
11
④②④③ |--①-|
①口口① |--②-|
①口口① |③---|
③④②④ |④---|
12
口②口口 |①---|
口③⑥① |②---|
①⑤④口 |③-④-|
口口②口 |⑤-⑥-|
13
④②④③ |--①-|
①口口① |--②-|
①口口① |③---|
③④②④ |④---|
14
口②口口 |①---|
口③⑥① |②---|
①⑤④口 |③-④-|
口口②口 |⑤-⑥-|
15
④②④③ |--①-|
①口口① |--②-|
①口口① |③---|
③④②④ |④---|
16
口②口口 |①---|
口③⑥① |②---|
①⑤④口 |③-④-|
口口②口 |⑤-⑥-|
17
④②④③ |--①-|
①口口① |--②-|
①口口① |③---|
③④②④ |④---|
18
口口口口 |①-②-|
①口口③ |③-④-|
②口口④
口口口口

口⑧口口
⑧⑤口口
口⑥口口 |⑤-⑥-|
口口⑦口 |⑦-⑧-|
19
②口①② |--①-|
口口口① |--②-|
口口口口 |③---|
③④④③ |④---|
20
⑦①①⑦ |①---|
口口③② |②-③-|
④⑤口⑥ |④-⑤-|
口口口口 |⑥-⑦-|
21
口口③口 |--①-|
④②口口 |--②-|
口口②④ |③---|
①③口① |④---|
22
口②口口 |①---|
口③⑥① |②---|
①⑤④口 |③-④-|
口口②口 |⑤-⑥-|
23
④②④③ |--①-|
①口口① |--②-|
①口口① |③---|
③④②④ |④---|
24
口②口口 |①---|
口③⑥① |②---|
①⑤④口 |③-④-|
口口②口 |⑤-⑥-|
25
④②④③ |--①-|
①口口① |--②-|
①口⑤① |③---|
③④②④ |④-⑤-|
26
⑤口口⑤ |①-②-|
口①⑥② |③-④-|
③⑥口口 |--⑤-|
口口④口 |⑥---|
27
口口③⑪ |--①②|
④口⑨⑪ |③④⑤⑥|
⑧⑩口⑤ |⑦⑧⑨⑩|
②⑥⑦① |⑪---|
28
①⑤⑤口 |①-②-|
口②口口 |③-④-|
口口③口 |--⑤-|
④⑥⑥④ |⑥---|
29
⑩口⑦⑩ |--①②|
④②⑤口 |③④⑤⑥|
口⑥①③ |⑦⑧--|
⑨⑧口⑨ |⑨-⑩-|
30
口②口口 |①---|
口③⑥① |②---|
①⑤④口 |③-④-|
口口②口 |⑤-⑥-|
31
④②④③ |--①-|
①口口① |--②-|
①口口① |③---|
③④②④ |④---|
32
口②口口 |①---|
口③⑥① |②---|
①⑤④口 |③-④-|
口口②口 |⑤-⑥-|
33
④②④③ |--①-|
①口口① |--②-|
①口口① |③---|
③④②④ |④---|
34
口口口口 |①-②-|
④②③① |③-④-|
⑧⑥⑦⑤ |⑤-⑥-|
口口口口 |⑦-⑧-|
35
⑧⑥⑦⑤ |①-②-|
④②③① |③-④-|
口口口口 |⑤-⑥-|
口口口口 |⑦-⑧-|
36
口口口口 |①-②-|
口口口口 |③-④-|
⑤⑦⑥⑧ |⑤-⑥-|
①③②④ |⑦-⑧-|
37
⑤口⑥④ |①-②-|
①③②口 |③-④-|
口⑦⑦口 |⑤-⑥-|
⑦口口⑦ |⑦---|
38
口②口口 |①---|
口③⑥① |②---|
①⑤④口 |③-④-|
口口②口 |⑤-⑥-|
39
④②④③ |--①-|
①口口① |--②-|
①口口① |③---|
③④②④ |④---|
40
口②口口 |①---|
口③⑥① |②---|
①⑤④口 |③-④-|
口口②口 |⑤-⑥-|
41
②口口② |--①-|
①口口① |--②-|
①④④① |③---|
③口口③ |④---|
42
⑥①口⑥ |①-②-|
口⑦口④ |③-④-|
②口口口 |⑤-⑥-|
⑤口③口 |--⑦-|
43
口口①口 |①-②-|
④口⑦⑥ |③-④-|
⑥口口② |⑤-⑥-|
口③口⑤ |--⑦-|
44
⑥①⑤② |①-②-|
④④⑧⑧ |③-④-|
⑥①⑤② |⑤-⑥-|
③③⑦⑦ |⑦-⑧-|
45
口①口② |①-②-|
④④口口 |③-④-|
口①口②
③③口口

⑤⑧⑤口
口口⑧⑦
⑥口⑥口 |⑤-⑥-|
口口口⑦ |⑦-⑧-|
46
口口③② |①---|
④⑤口口 |②-③-|
口①口⑥ |④-⑤-|
口口①⑥ |⑥---|
47
口⑤⑧⑤ |①-②-|
⑦⑧口④ |③-④-|
③⑥口⑥ |⑤-⑥-|
⑦①②口 |⑦-⑧-|
48
⑥口口口 |①-②-|
口口口④ |--③-|
②⑤①口 |④---|
口①③口 |⑤-⑥-|
49
口口口口 |--①-|
口②③口 |②-③-|
①⑤⑤口 |④---|
④口口④ |⑤---|
50
⑥①口⑥ |①-②-|
口⑦口④ |③-④-|
②口口口 |⑤-⑥-|
⑤口③口 |--⑦-|
51
口口①口 |①-②-|
④口⑦⑥ |③-④-|
⑥口口② |⑤-⑥-|
口③口⑤ |--⑦-|
52
⑥①⑤② |①-②-|
④④⑧⑧ |③-④-|
⑥①⑤② |⑤-⑥-|
③③⑦⑦ |⑦-⑧-|
53
口①口② |①-②-|
④④口口 |③-④-|
口①口②
③③口口

⑤⑧⑤口
口口⑧⑦
⑥口⑥口 |⑤-⑥-|
口口口⑦ |⑦-⑧-|
54
口口③② |①---|
④⑤口口 |②-③-|
口①口⑥ |④-⑤-|
口口①⑥ |⑥---|
55
②口口口 |①---|
②②口口 |----|
②①①口 |②---|
②②口口 |----|
56
口①②① |①-②-|
⑥口①④ |--③-|
口①口口 |④---|
③口口⑤ |⑤-⑥-|
57
口口口③ |--①-|
口口口口 |②-③-|
④②口⑤ |④---|
④口①⑤ |⑤---|
58
口口口口 |①---|
①①①① |----|
口口口口 |----|
口口口口 |----|
59
①①口口 |①---|
②②③③ |--②-|
③③②② |----|
口口①① |③---|
60
口口①① |①---|
口口②口 |----|
口②口口 |----|
①①口口 |--②-|
61
③①②口 |①---|
①口③② |--②-|
②③口① |----|
口②①③ |③---|
62
口口口① |①---|
口①②口 |----|
口口①口 |----|
①口口口 |--②-|
63
口①口口 |①---|
口③口口 |②-③-|
口⑤②口 |--④-|
口口④口 |⑤---|
64
口口口口 |①---|
①口口① |----|
口口口口 |----|
口口口口 |----|
65
口口口口 |----|
口口口口 |--①-|
③⑤④② |②-③-|
口①口口 |④-⑤-|
66
口口口口 |①---|
①①①① |----|
口口口口 |----|
口口口口 |----|
67
①②③口 |①---|
①②③口 |--②-|
口③②① |----|
口③②① |③---|
68
口口口① |①---|
口口口① |----|
①口口口 |----|
①口口口 |----|
69
口①①口 |①---|
①口口① |--②-|
②③③② |----|
③②②③ |③---|
70
①口口① |①---|
口①①口 |----|
口口口口 |----|
口口口口 |----|
71
①口口① |①---|
口③④口 |②-③-|
口⑤②口 |--④-|
口口口口 |⑤---|
72
口口口口 |----|
口口口口 |----|
口口口口 |----|
口口口口 |----|
73
口口口口 |----|
口口口口 |----|
口口口口 |①---|
口①②口 |②---|
74
①口①口 |①---|
①①①口 |----|
①口①口 |②---|
口口口② |----|
75
口②口② |①---|
①②①② |----|
①①②口 |②---|
①口①口 |----|
76
口口②口 |①---|
①③⑥口 |②---|
口⑤④① |③-④-|
口②口口 |⑤-⑥-|
77
④②④③ |--①-|
①口口① |--②-|
①口口① |③---|
③④②④ |④---|
78
口②口口 |①---|
口③⑥① |②---|
①⑤④口 |③-④-|
口口②口 |⑤-⑥-|
79
④②④③ |--①-|
①口口① |--②-|
①口口① |③---|
③④②④ |④---|
80
口②口口 |①---|
口③⑥① |②---|
①⑤④口 |③-④-|
口口②口 |⑤-⑥-|
81
④②④③ |--①-|
①口口① |--②-|
①口口① |③---|
③④②④ |④---|
82
口②口口 |①---|
口③⑥① |②---|
①⑤④口 |③-④-|
口口②口 |⑤-⑥-|
83
④②④③ |--①-|
①口口① |--②-|
①口口① |③---|
③④②④ |④---|
84
口③口口 |①---|
口口④① |②---|
⑤②口口 |③-④-|
口口口⑥ |⑤-⑥-|
85
③③③③ |--①-|
②③③② |--②-|
④①①④ |③---|
④④④④ |④---|


不確定度: 0

最終更新:2014年04月25日 17:47