chaplet
DJ TOTTO

BASIC

Level: 5
BPM: 200
Notes: 277

1
口口口口 |----|
口口口口 |----|
口口口口 |----|
口口口口 |----|
2
口口口口 |----|
口口口口 |----|
口口口口 |----|
口口口口 |----|
3
口口口口 |①---|
口口口口 |----|
口口口口 |----|
口①①口 |----|
4
口口口口 |----|
口口口口 |----|
口口口口 |----|
口口口口 |----|
5
口①①口 |①---|
口口口口 |----|
口口口口 |----|
口口口口 |----|
6
口口口口 |----|
口口口口 |----|
口口口口 |----|
口口口口 |----|
7
口口口口 |①---|
口①①口 |----|
口口口口 |----|
口口口口 |----|
8
口口口口 |----|
口口口口 |----|
口口口口 |----|
口口口口 |----|
9
口口口口 |①---|
口口口口 |----|
口①①口 |----|
口口口口 |----|
10
口口口口 |----|
口口口口 |----|
口口口口 |----|
口口口口 |----|
11
口口口口 |①---|
口口口口 |----|
口口口口 |----|
①①①① |----|
12
口口口口 |----|
口口口口 |----|
口口口口 |----|
口口口口 |----|
13
①①①① |①---|
口口口口 |----|
口口口口 |----|
口口口口 |----|
14
口口口口 |----|
口口口口 |----|
口口口口 |----|
口口口口 |----|
15
口口口口 |①---|
①①①① |----|
口口口口 |----|
口口口口 |----|
16
口口口口 |①---|
口口口口 |----|
口口口口 |----|
①①①① |----|
17
口口口口 |①---|
口口口口 |----|
①①①① |----|
口口口口 |----|
18
口口口口 |①---|
①①①① |----|
口口口口 |----|
口口口口 |----|
19
口口口口 |①---|
口口口口 |----|
口①②口 |②---|
口①②口 |----|
20
口口口口 |①---|
④口口② |②---|
③口口① |③---|
口口口口 |④---|
21
口①②口 |①---|
口③④口 |②---|
口口口口 |③---|
口口口口 |④---|
22
①口口③ |①---|
口口口口 |②---|
口口口口 |③---|
②口口④ |④---|
23
口口口口 |①---|
口②②口 |----|
口①①口 |②---|
口口口口 |----|
24
口口口口 |①---|
④口口② |②---|
③口口① |③---|
口口口口 |④---|
25
口口口口 |①---|
口③④口 |②---|
口①②口 |③---|
口口口口 |④---|
26
口①①口 |①---|
口口口口 |----|
口口口口 |②---|
口②②口 |----|
27
口口口① |①---|
口口②口 |②---|
口③口口 |③---|
④口口口 |④---|
28
口口口口 |①---|
④口口② |②---|
③口口① |③---|
口口口口 |④---|
29
口①②口 |①---|
口③④口 |②---|
口口口口 |③---|
口口口口 |④---|
30
①口口③ |①---|
口口口口 |②---|
口口口口 |③---|
②口口④ |④---|
31
口口口口 |①---|
②口口② |----|
①口口① |②---|
口口口口 |----|
32
口口口口 |①---|
口②口口 |----|
口③口口 |②---|
口①口① |③---|
33
口口口口 |①---|
口口②口 |----|
口口③口 |②---|
①口①口 |③---|
34
口②②口 |①---|
口口口口 |----|
口口口口 |②---|
口①①口 |----|
35
①口口③ |①---|
口口口口 |②---|
口口口口 |③---|
②口口④ |④---|
36
口口口口 |①---|
口②②口 |----|
口①①口 |②---|
口口口口 |----|
37
④③②① |①---|
口口口口 |②---|
口口口口 |③---|
口口口口 |④---|
38
口口口口 |①---|
口①①口 |----|
口②②口 |②---|
口口口口 |----|
39
口口口口 |①---|
口口口口 |②---|
口口口口 |③---|
①②③④ |④---|
40
口口口口 |①---|
口口口口 |----|
口①①口 |----|
口口口口 |----|
41
口口口口 |①---|
④③②① |②---|
口口口口 |③---|
口口口口 |④---|
42
口口口口 |①---|
口口口口 |----|
口①①口 |----|
口口口口 |----|
43
口口口口 |①---|
口②②口 |----|
口口口口 |②---|
口①①口 |----|
44
口口口口 |①---|
口②②口 |----|
口①①口 |②---|
口口口口 |----|
45
④口口② |①---|
③口口① |②---|
口口口口 |③---|
口口口口 |④---|
46
口口口口 |①---|
口①①口 |----|
口②②口 |②---|
口口口口 |----|
47
口口口口 |①---|
口口口口 |②---|
①口口③ |③---|
②口口④ |④---|
48
口口口口 |①---|
口口口口 |----|
口①①口 |----|
口口口口 |----|
49
①口口口 |①---|
口②口口 |②---|
口口③口 |③---|
口口口④ |④---|
50
口口口口 |①---|
口口口口 |----|
口口口口 |----|
口①①口 |----|
51
口口口口 |①---|
口口口口 |----|
口①①口 |----|
口口口口 |----|
52
口口口口 |①---|
口口口口 |----|
口口口口 |----|
①口口① |----|
53
口口口口 |①---|
口口口口 |----|
①口口① |----|
口口口口 |----|
54
口口口口 |①---|
①口口① |----|
口口口口 |----|
口口口口 |----|
55
口口口口 |①---|
口口口口 |----|
①②②① |②---|
口口口口 |----|
56
口口口口 |①---|
①口口① |----|
口口口口 |----|
口口口口 |----|
57
①口口① |①---|
口口口口 |----|
口口口口 |----|
口口口口 |----|
58
口口口口 |①---|
①口口① |----|
口口口口 |----|
口口口口 |----|
59
口口口口 |①---|
口口口口 |----|
①口口① |----|
口口口口 |----|
60
口口口口 |①---|
口口口口 |----|
口口口口 |②---|
①口②① |----|
61
口口口口 |①---|
口口口口 |----|
①②口① |②---|
口口口口 |----|
62
口口口口 |①---|
①口②① |----|
口口口口 |②---|
口口口口 |----|
63
①②口① |①---|
口口口口 |----|
口口口口 |②---|
口口口口 |----|
64
口口口口 |①---|
①口②① |----|
口口口口 |②---|
口口口口 |----|
65
口口口口 |①---|
口口口口 |----|
①②口① |②---|
口口口口 |----|
66
口口口口 |①---|
口口口口 |----|
口口口口 |②---|
①口②① |----|
67
口口口口 |①---|
口②②口 |----|
口①①口 |②---|
口口口口 |----|
68
口口口口 |①---|
口口口口 |----|
口口①口 |----|
口口口口 |----|
69
口口口口 |①---|
口口口口 |----|
口①口口 |----|
口口口口 |----|
70
口口口口 |①---|
口口①口 |----|
口口口口 |----|
口口口口 |----|
71
口②口口 |①---|
口①口口 |----|
口口口口 |②---|
口口口口 |----|
72
口口口口 |①---|
口口口口 |----|
口①口口 |----|
口口口口 |----|
73
口口口口 |①---|
口口口口 |----|
口口①口 |----|
口口口口 |----|
74
口②①口 |①---|
口口口口 |----|
口口口口 |②---|
口口口口 |----|
75
口口口口 |①---|
口②①口 |----|
口③口口 |②---|
口口口口 |③---|
76
口口口口 |①---|
④口口② |②---|
③口口① |③---|
口口口口 |④---|
77
口①②口 |①---|
口③④口 |②---|
口口口口 |③---|
口口口口 |④---|
78
①口口③ |①---|
口口口口 |②---|
口口口口 |③---|
②口口④ |④---|
79
口口口口 |①---|
②口口② |----|
①口口① |②---|
口口口口 |----|
80
口口口口 |①---|
口②口口 |----|
口③口口 |②---|
口①口① |③---|
81
口口口口 |①---|
口口②口 |----|
口口③口 |②---|
①口①口 |③---|
82
口②②口 |①---|
口口口口 |----|
口口口口 |②---|
口①①口 |----|
83
①口口③ |①---|
口口口口 |②---|
口口口口 |③---|
②口口④ |④---|
84
口口口口 |①---|
口②②口 |----|
口①①口 |②---|
口口口口 |----|
85
口③②口 |①---|
④口口① |②---|
口口口口 |③---|
口口口口 |④---|
86
口口口口 |①---|
口①①口 |----|
口②②口 |②---|
口口口口 |----|
87
口口口口 |①---|
口口口口 |②---|
①口口④ |③---|
口②③口 |④---|
88
口口口口 |①---|
口②②口 |----|
口①①口 |②---|
口口口口 |----|
89
口口①口 |①---|
口口口② |②---|
口口口③ |③---|
口口④口 |④---|
90
口口口口 |①---|
口②②口 |----|
口①①口 |②---|
口口口口 |----|
91
口①口口 |①---|
②口口口 |②---|
③口口口 |③---|
口④口口 |④---|
92
口口口口 |①---|
口①①口 |----|
口①①口 |----|
口口口口 |----|

不確定度: 0

最終更新:2014年04月17日 15:00