FRIENDSHIP
PON

EXTREME

Level: 8
BPM: 208
Notes: 540

1
口口口口 |----|
口口口口 |----|
口口口口 |----|
口口口口 |----|
2
⑤口①⑥ |①-②-|
口②口④ |③-④-|
口口③口 |--⑤-|
口口口口 |--⑥-|
3
口②口口 |--①-|
③⑥⑤口 |--②-|
口④口口 |③-④-|
①口口口 |⑤-⑥-|
4
口口口口 |①-②-|
口口口口 |③-④-|
①口③⑥ |--⑤-|
⑤②口④ |--⑥-|
5
④口口口 |--①-|
①口口③ |--②-|
口②口口 |③-④-|
口口口口 |----|
6
口口①① |①---|
口①①口 |----|
口口口口 |----|
口口口口 |----|
7
③③口口 |----|
口③口口 |----|
口口口② |①-②-|
口口口① |③---|
8
③口口③ |①---|
③口②③ |--②-|
口口口口 |----|
①口口口 |③---|
9
③③②口 |----|
口③口口 |----|
口口口口 |①-②-|
口①口口 |--③-|
10
口口③③ |--①-|
④④口口 |--②-|
口④①① |--③-|
②口口① |--④-|
11
口口口口 |----|
口口②① |--①-|
③口④口 |--②-|
口口④口 |③-④-|
12
口口口口 |--①-|
口口口口 |----|
口口口① |----|
口口口① |----|
13
口口④口 |----|
③③口口 |--①-|
②②口口 |②-③-|
①①口口 |--④-|
14
③①口① |①---|
口口④③ |②-③-|
④口②口 |--④-|
⑤⑤⑤⑤ |--⑤-|
15
口口③口 |----|
②口口口 |----|
口口口① |①-②-|
口口口口 |--③-|
16
③①口① |①---|
口口④③ |②-③-|
④⑤②⑤ |--④-|
口口口口 |--⑤-|
17
口口口口 |--①-|
口口口口 |②---|
口口口口 |----|
②①①② |----|
18
③口口口 |①---|
口①口口 |--②-|
口①口② |----|
口口口② |③---|
19
口口口③ |--①-|
口口①口 |----|
②口①口 |②---|
②口口口 |③---|
20
口①①口 |①---|
①②②① |--②-|
口口口口 |----|
口②②口 |----|
21
②口口口 |----|
口口口① |----|
口口口口 |①-②-|
口口口口 |----|
22
口口①① |①---|
口①①口 |----|
口口口③ |②-③-|
②口口口 |----|
23
④④口口 |①---|
口④口口 |----|
①①③口 |②-③-|
口①①② |④---|
24
③口口③ |①---|
③口②③ |--②-|
口口口口 |----|
①口口口 |③---|
25
③③②口 |----|
口③口口 |----|
口口口口 |①-②-|
口①口口 |--③-|
26
口口③③ |--①-|
④④口口 |--②-|
口④①① |--③-|
②口①口 |--④-|
27
口口口口 |----|
口口②① |--①-|
③口④口 |--②-|
口口④口 |③-④-|
28
口口口口 |--①-|
口口口口 |----|
口口口① |----|
口口口① |----|
29
口口④口 |----|
③③口口 |--①-|
②②口口 |②-③-|
①①口口 |--④-|
30
③①口① |①---|
口口④③ |②-③-|
④口②口 |--④-|
⑤⑤⑤⑤ |--⑤-|
31
口口③口 |----|
②口口口 |----|
口口口① |①-②-|
口口口口 |--③-|
32
③①口① |①---|
口口④③ |②-③-|
④⑤②⑤ |--④-|
口口口口 |--⑤-|
33
口口口口 |--①-|
口口口口 |②---|
口口口口 |----|
②①①② |----|
34
③口口口 |①---|
口①口口 |--②-|
口①口② |----|
口口口② |③---|
35
口口口① |①---|
口口③口 |--②-|
②口口口 |----|
②口口口 |③---|
36
口口口口 |①---|
口①口④ |--②-|
口口③口 |--③-|
②②②② |--④-|
37
口②口口 |--①-|
③①⑤口 |--②-|
口④口口 |③-④-|
口口口口 |⑤---|
38
口口④口 |①-②-|
⑤③口口 |--③-|
口口口② |--④-|
口口①口 |--⑤-|
39
口口口口 |--①-|
口③②口 |--②-|
口①口⑥ |③-④-|
④④口⑤ |⑤-⑥-|
40
②⑦①① |①-②-|
③⑦口⑧ |③-④-|
⑤⑥④口 |⑤-⑥-|
口口④口 |⑦-⑧-|
41
③⑥口③ |①-②-|
口⑤①口 |③---|
口口④④ |--④-|
②口口② |⑤-⑥-|
42
④口③⑦ |①-②-|
④口②⑦ |③-④-|
①①口口 |⑤-⑥-|
⑧口⑥⑤ |⑦-⑧-|
43
④④口⑤ |①-②-|
口口口⑥ |③---|
③②②③ |--④-|
口①口口 |⑤-⑥-|
44
口口④口 |①-②-|
⑤⑥④口 |③-④-|
③⑦口⑧ |⑤-⑥-|
②⑦①① |⑦-⑧-|
45
②口口② |①-②-|
口口口口 |----|
口口①口 |--③-|
③④④③ |④---|
46
②②②② |①---|
①①①① |--②-|
③口口③ |----|
口口口口 |③---|
47
口口口口 |----|
口口口口 |----|
口口口③ |--①-|
①①口② |②-③-|
48
②⑦①① |①-②-|
③⑦口⑧ |③-④-|
⑤⑥④口 |⑤-⑥-|
口口④口 |⑦-⑧-|
49
③⑥口③ |①-②-|
口⑤①口 |③---|
口口④④ |--④-|
②口口② |⑤-⑥-|
50
④口③④ |①-②-|
⑥口②⑥ |③-④-|
①①口口 |--⑤-|
⑤口口⑤ |⑥---|
51
口口③③ |----|
口②口口 |①---|
①①口口 |②---|
口口口口 |③---|
52
③③口口 |①---|
口口口口 |②-③-|
口口口① |----|
①①②口 |----|
53
口口口③ |①---|
①口②口 |----|
①①②② |②---|
①口②口 |③---|
54
④③③③ |①---|
④①③口 |②---|
①②口口 |----|
口②口口 |③-④-|
55
口口口口 |①---|
口③口① |--②-|
②②②① |③---|
口③②口 |----|
56
④口口口 |①---|
口口口③ |--②-|
口②②口 |③---|
①口口① |④---|
57
口口①① |①---|
口①①口 |----|
口口口③ |②---|
②口口口 |③---|
58
④④口口 |①---|
口④口口 |----|
①①③口 |②-③-|
口①①② |④---|
59
③口口③ |①---|
③口②③ |--②-|
口口口口 |----|
①口口口 |③---|
60
③③②口 |----|
口③口口 |----|
口口口口 |①-②-|
口①口口 |--③-|
61
口口③③ |--①-|
④④口口 |--②-|
口④①① |--③-|
②口①口 |--④-|
62
口口口口 |----|
口口②① |--①-|
③口④口 |--②-|
口口④口 |③-④-|
63
口口口口 |--①-|
口口口口 |----|
口口口① |----|
口口口① |----|
64
口口④口 |----|
③③口口 |--①-|
②②口口 |②-③-|
①①口口 |--④-|
65
③①口① |①---|
口口④③ |②-③-|
④口②口 |--④-|
⑤⑤⑤⑤ |--⑤-|
66
口口③口 |----|
②口口口 |----|
口口口① |①-②-|
口口口口 |--③-|
67
③①口① |①---|
口口④③ |②-③-|
④⑤②⑤ |--④-|
口口口口 |--⑤-|
68
口口口口 |--①-|
口口口口 |②---|
口口口口 |----|
②①①② |----|
69
③口口口 |①---|
口①口口 |--②-|
口①口② |----|
口口口② |③---|
70
口口口① |①---|
口口③口 |--②-|
②口口口 |----|
②口口口 |③---|
71
口口口口 |①---|
口①口口 |--②-|
②口口② |③---|
口③③口 |----|
72
口口口口 |----|
口口口口 |----|
口口口口 |----|
口口口口 |----|
73
③①口口 |①---|
②口①② |--②-|
口①口口 |----|
口口口② |③---|
74
口口口① |①---|
③口④③ |②-③-|
口②②口 |----|
③口口口 |④---|
75
口口口口 |①---|
口①口口 |--②-|
②②②② |----|
口口口口 |----|
76
口口口口 |----|
口口口口 |----|
口口口口 |----|
口口口口 |----|
77
口口口口 |①-②-|
⑦口⑧口 |③-④-|
口⑥③口 |⑤-⑥-|
①⑤②④ |⑦-⑧-|
78
口④①口 |①-②-|
口③口② |③-④-|
口⑥口口 |--⑤-|
⑤口⑦口 |⑥-⑦-|
79
⑤③④⑤ |①-②-|
①④③② |--③-|
②口口① |--④-|
口口口口 |⑤---|
80
口口口口 |--①-|
口口口口 |②---|
①口③③ |③---|
②口④④ |④---|
81
口口③口 |①-②-|
口口④口 |--③-|
②①口口 |--④-|
口口口口 |----|
82
口口口口 |①---|
①口口① |----|
②口口② |②---|
口口口口 |----|
83
③口口④ |①---|
口口口② |--②-|
口口口口 |--③-|
①①①① |--④-|
84
口②口口 |--①-|
③⑥⑤口 |--②-|
口④口口 |③-④-|
①口口口 |⑤-⑥-|
85
口口口口 |①-②-|
口口口口 |③-④-|
①口③⑥ |--⑤-|
⑤②口④ |--⑥-|
86
口口②口 |--①-|
①③口⑤ |--②-|
口口④口 |③-④-|
口口口口 |⑤---|
87
口口口口 |①---|
口口①口 |----|
口口口口 |----|
口口口口 |----|


不确定度: 0

最終更新:2012年11月08日 18:20