ストレイ・マーチ
少年ゾディアック

BASIC

Level: 3
BPM: 180
Notes: 213

1
口口口口 |------|
口口口口 |------|
口口口口 |------|
口口口口 |------|
2
口口口口 |①-----|
口口口口 |------|
口口①口 |------|
口口口口 |------|
3
口口口口 |①-----|
口口①口 |------|
口口口口 |------|
口口口口 |------|
4
口口口口 |①-----|
口口口口 |------|
口①口口 |------|
口口口口 |------|
5
口口口口 |①-----|
口①口口 |------|
口口口口 |------|
口口口口 |------|
6
口口口口 |①-----|
口口②口 |------|
口口①口 |②-----|
口口口口 |------|
7
口口口口 |①-----|
口②口口 |------|
口①口口 |②-----|
口口口口 |------|
8
口口①口 |①-----|
口口②口 |②-----|
口口③口 |③-----|
口口④口 |④-----|
9
口口口口 |①-----|
口②口口 |------|
口口口口 |②-----|
口①口口 |------|
10
口口口口 |①-----|
口口口口 |②-----|
④③②① |③-----|
口口口口 |④-----|
11
口口②口 |①-----|
口口①口 |------|
口口口口 |②-----|
口口口口 |------|
12
口②口口 |①-----|
口①口口 |------|
口口口口 |②-----|
口口口口 |------|
13
口口口口 |①-----|
口口口口 |②-----|
口④③口 |③-----|
口②①口 |④-----|
14
口④③口 |①-----|
口②①口 |②-----|
口口口口 |③-----|
口口口口 |④-----|
15
口口口口 |①-----|
口口②口 |------|
口口①口 |②-----|
口口口口 |------|
16
口口口口 |①-----|
口②口口 |------|
口①口口 |②-----|
口口口口 |------|
17
口口口口 |①-----|
口口②口 |------|
口口①口 |②-----|
口口口口 |------|
18
口口口口 |①-----|
口②口口 |------|
口①口口 |②-----|
口口口口 |------|
19
口口口口 |①-----|
口口口口 |------|
②口口① |②-----|
口口口口 |------|
20
口口口口 |①-----|
②口口① |------|
口口口口 |②-----|
口口口口 |------|
21
口口口口 |①-----|
口口口口 |------|
口①①口 |------|
口口口口 |------|
22
口口口口 |①-----|
口①①口 |------|
口口口口 |------|
口口口口 |------|
23
口口口口 |①-----|
口口口口 |------|
①口口① |------|
口口口口 |------|
24
口口口口 |①-----|
①口口① |------|
口口口口 |------|
口口口口 |------|
25
口口口口 |①-----|
口口口口 |------|
口①①口 |------|
口口口口 |------|
26
口口口口 |①-----|
口①①口 |------|
口口口口 |------|
口口口口 |------|
27
口①①口 |①-----|
口口口口 |------|
口口口口 |------|
口口口口 |------|
28
口口口口 |①-----|
口①①口 |------|
口口口口 |------|
口口口口 |------|
29
口口口口 |①-----|
口口口口 |------|
口①①口 |------|
口口口口 |------|
30
口口口口 |------|
口口口口 |------|
口口口口 |------|
口口口口 |------|
31
口口口口 |①-----|
口①①口 |------|
口口口口 |------|
口口口口 |------|
32
口口口口 |------|
口口口口 |------|
口口口口 |------|
口口口口 |------|
33
口口口口 |①-----|
口口口口 |------|
口口口① |------|
口口口口 |------|
34
口口口口 |①-----|
口口口① |------|
口口口口 |------|
口口口口 |------|
35
口口口口 |①-----|
①口口口 |------|
口口口口 |------|
口口口口 |------|
36
口口口口 |①-----|
口口口口 |------|
①口口口 |------|
口口口口 |------|
37
口口口口 |①-----|
口①①口 |------|
口①①口 |------|
口口口口 |------|
38
口口口口 |------|
口口口口 |------|
口口口口 |------|
口口口口 |------|
39
口口口口 |①-----|
①口口① |------|
①口口① |------|
口口口口 |------|
40
口口口口 |①-----|
口口口口 |②-----|
口④③口 |③-----|
口②①口 |④-----|
41
口口口口 |①-----|
口口①口 |------|
口口口口 |------|
口口口口 |------|
42
口口口口 |①-----|
口口口口 |②-----|
口④③口 |③-----|
口②①口 |④-----|
43
口④③口 |①-----|
口②①口 |②-----|
口口口口 |③-----|
口口口口 |④-----|
44
口口口口 |①-----|
口④③口 |②-----|
口②①口 |③-----|
口口口口 |④-----|
45
口口口口 |①-----|
口口口口 |------|
口口口① |------|
口口口口 |------|
46
口口口口 |①-----|
口口口口 |------|
①口口口 |------|
口口口口 |------|
47
口口口口 |①-----|
口口①口 |------|
口口②口 |②-----|
口口口口 |------|
48
口口口口 |①-----|
口①口口 |------|
口②口口 |②-----|
口口口口 |------|
49
口口口口 |①-----|
口②②口 |------|
口口口口 |②-----|
口①①口 |------|
50
口口口口 |①-----|
②口口② |------|
口口口口 |②-----|
①口口① |------|
51
口口口口 |①-----|
口口口口 |------|
口①①口 |------|
口口口口 |------|
52
口口口口 |①-----|
口①①口 |------|
口②②口 |②-----|
口口口口 |------|
53
口口口口 |①-----|
①口口① |------|
①口口① |------|
口口口口 |------|
54
口口口口 |①-----|
口①①口 |------|
口②②口 |②-----|
口口口口 |------|
55
口口口口 |①-----|
口②①口 |②-----|
口④③口 |③-----|
口口口口 |④-----|
56
口口口口 |①-----|
①口口① |------|
口口口口 |------|
口口口口 |------|
57
口口④口 |①-----|
口口③口 |②-----|
口口②口 |③-----|
口口①口 |④-----|
58
口④口口 |①-----|
口③口口 |②-----|
口②口口 |③-----|
口①口口 |④-----|
59
②口口① |①-----|
④口口③ |②-----|
口口口口 |③-----|
口口口口 |④-----|
60
口口口口 |①-----|
口口口口 |②-----|
②口口① |③-----|
④口口③ |④-----|
61
口口口口 |①-----|
口口②口 |------|
口口①口 |②-----|
口口口口 |------|
62
口口口口 |①-----|
口①口口 |------|
口②口口 |②-----|
口口口口 |------|
63
口口口口 |①-----|
④③②① |②-----|
口口口口 |③-----|
口口口口 |④-----|
64
口口口口 |①-----|
口口口口 |------|
口①①口 |------|
口口口口 |------|
65
口口④口 |①-----|
口口③口 |②-----|
口口②口 |③-----|
口口①口 |④-----|
66
口④口口 |①-----|
口③口口 |②-----|
口②口口 |③-----|
口①口口 |④-----|
67
口口口口 |①-----|
②口口② |------|
①口口① |②-----|
口口口口 |------|
68
口口口口 |①-----|
口②②口 |------|
口①①口 |②-----|
口口口口 |------|
69
口口口口 |①-----|
口口②口 |------|
口口①口 |②-----|
口口口口 |------|
70
口口口口 |①-----|
口②口口 |------|
口①口口 |②-----|
口口口口 |------|
71
口口口口 |①---②-|
口⑥⑤口 |--③---|
口④③口 |④---⑤-|
口②①口 |--⑥---|
72
口②①口 |①---②-|
口口口口 |--③---|
口⑥⑤口 |④---⑤-|
口④③口 |--⑥---|
73
口口②口 |①-----|
口口①口 |------|
口口口口 |②-----|
口口口口 |------|
74
口②口口 |①-----|
口①口口 |------|
口口口口 |②-----|
口口口口 |------|
75
口口口口 |①-----|
口口②口 |------|
口口①口 |②-----|
口口口口 |------|
76
口口口口 |①-----|
口②口口 |------|
口①口口 |②-----|
口口口口 |------|
77
口口口口 |①-----|
口口②口 |------|
口口①口 |②-----|
口口口口 |------|
78
口口口口 |①-----|
口②口口 |------|
口①口口 |②-----|
口口口口 |------|
79
口口口口 |①-----|
口口口口 |------|
口①①口 |------|
口口口口 |------|
80
口口口口 |①-----|
口①①口 |------|
口口口口 |------|
口口口口 |------|
81
口口口口 |①-----|
口口口口 |------|
①口口① |------|
口口口口 |------|
82
口口口口 |①-----|
①口口① |------|
口口口口 |------|
口口口口 |------|
83
口口口口 |①-----|
口口口口 |------|
口①①口 |------|
口口口口 |------|
84
口口口口 |①-----|
口①①口 |------|
口口口口 |------|
口口口口 |------|
85
口①①口 |①-----|
口口口口 |------|
口口口口 |------|
口口口口 |------|
86
口口口口 |①-----|
口①①口 |------|
口口口口 |------|
口口口口 |------|
87
口口口口 |①-----|
口口口口 |------|
口①①口 |------|
口口口口 |------|

不確定度: 0

最終更新:2014年04月17日 15:00