ストレイ・マーチ
少年ゾディアック

ADVANCED

Level: 7
BPM: 180
Notes: 542

1
口口口口 |------|
口口口口 |------|
口口口口 |------|
口口口口 |------|
2
口①口口 |①-----|
口口口口 |------|
口②口口 |------|
口口口口 |②-----|
3
口口口口 |①-----|
口①口口 |------|
口口口口 |------|
口口口口 |------|
4
口口①口 |①-----|
口口②口 |------|
口口口口 |------|
口口口口 |②-----|
5
口口口口 |①-----|
口口口口 |------|
口口①口 |②-----|
②口口② |------|
6
⑤⑤口口 |①-----|
口⑧④口 |②-③-④-|
①③⑦① |⑤-----|
口⑥②口 |⑥-⑦-⑧-|
7
⑤⑤①① |①-----|
⑧口口④ |②-③-④-|
③口口⑦ |⑤-----|
⑥口口② |⑥-⑦-⑧-|
8
③③①① |①-----|
口口口口 |②-----|
口口口口 |③-----|
④④②② |④-----|
9
口口口口 |①-----|
口①①口 |②-③-④-|
⑤③②④ |⑤-----|
口口口口 |------|
10
②口口① |①-----|
①口口② |②-----|
④口口③ |③-----|
③口口④ |④-----|
11
口①①口 |①-----|
③口口② |②-③-④-|
口⑤④口 |⑤-----|
口口口口 |------|
12
口口口口 |①-----|
口①①口 |②-③-④-|
③口口② |⑤-----|
⑥⑤④⑥ |⑥-----|
13
口口③⑥ |①-----|
④①①口 |②---③-|
口口②⑤ |④-----|
口口口口 |⑤---⑥-|
14
口口口口 |①-----|
口①口口 |②-③-④-|
⑥⑤④⑥ |⑤-----|
口③②口 |⑥-----|
15
口①①口 |①-----|
③口口② |②-③-④-|
口⑤④口 |⑤-----|
口口口口 |------|
16
口口口口 |①-----|
口①①口 |②-③-④-|
③口口②
口口④口

口口口口
口⑦口口
口口⑥口 |⑤---⑥-|
口⑤口口 |--⑦---|
17
口④口口 |①---②-|
口口③口 |--③---|
口口口口 |④-----|
②口口① |------|
18
口口口口 |①---②-|
④③口口 |--③---|
口口②① |④-----|
口口⑤口 |--⑤---|
19
口③口口 |①-----|
口口①口 |--②---|
口②口口 |③-----|
口口口口 |------|
20
口口口① |①---②-|
口②口口 |--③---|
口口③口 |④-----|
④⑤⑤口 |⑤-----|
21
口口③③ |①-----|
口①①口 |②-----|
口口口口 |③-----|
口口口② |------|
22
②口口口 |①-----|
口口口口 |②-----|
口①①口 |③-----|
③③口口 |------|
23
口口③③ |①-----|
口①①口 |②-----|
④口口④ |③-----|
口口口② |④-----|
24
②②④④ |①-----|
①口口① |②-----|
口口口口 |③-----|
口③③口 |④-----|
25
③③口口 |①-----|
口①①口 |②-----|
口口口口 |③-----|
②口口口 |------|
26
口口口② |①-----|
④口口④ |②-----|
口①①口 |③-----|
口口③③ |④-----|
27
口①①口 |①-----|
口口口口 |------|
口口口口 |------|
口口口口 |------|
28
口①①口 |①-----|
口②②口 |------|
口③③口 |②---③-|
口④④口 |--④---|
29
口口口口 |①-----|
口口口口 |------|
口口口口 |------|
①口口① |------|
30
口口口① |------|
口口口① |------|
口口②口 |①-----|
口口②口 |②-----|
31
口①口口 |①-----|
口①口口 |②-----|
②口口口 |------|
②口口口 |------|
32
口口口口 |------|
口口口口 |------|
口①①口 |①-----|
②口口② |②-----|
33
口口口口 |①-----|
口口口口 |------|
口口口② |------|
口①①② |②-----|
34
口口口口 |①-----|
口口④④ |②-----|
③②②口 |③-----|
③①①口 |④-----|
35
口口口口 |①-----|
①①口口 |------|
③口④② |②---③-|
③口④② |--④---|
36
口口口口 |①-----|
口口口口 |------|
口①口口 |------|
口①口口 |------|
37
①①①① |①-----|
口口口口 |------|
口口口口 |------|
口口口口 |------|
38
口口口口 |------|
口口口口 |------|
口②②口 |①-----|
口①①口 |②-----|
39
口②②口 |①-----|
③①①③ |②---③-|
口口口口 |------|
口口口口 |------|
40
①口口① |①-----|
④口口④ |②-----|
口③③口 |③-----|
口②②口 |④-----|
41
①③③① |①-----|
口口口口 |②---③-|
口口口口 |------|
④②②④ |④-----|
42
口口②① |①-----|
口③②① |②-----|
④③口口 |③-----|
④口口口 |④-----|
43
口口④④ |①-----|
口口③③ |②-----|
口口②② |③-----|
口口①① |④-----|
44
①①④④ |①-----|
口口口口 |②-----|
③③口口 |③-----|
②②口口 |④-----|
45
口口口口 |----①-|
口③口口 |--②---|
口口②口 |③-----|
口口①口 |------|
46
口口③口 |①---②-|
口口④口 |--③---|
口②口口 |④-----|
口①口口 |------|
47
口③⑥② |①---②-|
口口口口 |--③---|
口④⑤① |④---⑤-|
口口口口 |--⑥---|
48
①口口口 |①---②-|
口④③口 |--③---|
②⑤口口 |④-----|
口口口口 |--⑤---|
49
口口口口 |①---②-|
口口④口 |--③---|
口口口③ |④-----|
口②口① |------|
50
⑤口口口 |①---②-|
④口口口 |--③---|
口口①口 |④-----|
②口③口 |--⑤---|
51
口口口③ |①-----|
口口③④ |------|
口口④② |②---③-|
口口②① |--④---|
52
②口口口 |①---②-|
③②口口 |--③---|
①③口口
口①口口

口④④口
口口口口
口口口口 |④-----|
口⑤⑤口 |--⑤---|
53
①口口① |①-----|
口口口口 |------|
口③③口 |----②-|
口②②口 |--③---|
54
①口口① |①-----|
口②②口 |--②---|
③口口③ |③-----|
口口口口 |------|
55
②④③① |①-----|
口口口口 |②-----|
口口口口 |③-----|
③①②④ |④-----|
56
口口口口 |①-----|
口①①口 |------|
口①①口 |------|
口口口口 |------|
57
②④②④ |①-----|
口口口口 |②-----|
口口口口 |③-----|
③①③① |④-----|
58
②④②④ |①-----|
口口口口 |②-----|
①口口③ |③-----|
③口口① |④-----|
59
口④②口 |①-----|
③口口① |②-----|
②口口④ |③-----|
口①③口 |④-----|
60
口口口① |①---②-|
口④③① |--③---|
②④③口 |④-----|
②⑤⑤口 |⑤-----|
61
①口口① |①-----|
③口口② |②-③-④-|
口⑤④口 |⑤-----|
口⑥⑥口 |⑥-----|
62
③①①② |①-----|
③口口② |--②---|
⑤口口④ |③---④-|
⑤口口④ |--⑤---|
63
口①①口 |①-----|
口③③口 |②-----|
口④④口 |③-----|
口②②口 |④-----|
64
①口口① |①-----|
口口口口 |------|
口口口口 |------|
口口口口 |------|
65
②④②④ |①-----|
口口口口 |②-----|
口口口口 |③-----|
③①③① |④-----|
66
②④②④ |①-----|
口口口口 |②-----|
③口口① |③-----|
口①③口 |④-----|
67
口口口口 |①-----|
口②②口 |--②---|
口口口口 |③-----|
①③③① |------|
68
①③③① |①-----|
口口口口 |②-----|
口口口口 |③-----|
②④④② |④-----|
69
①口口① |①-----|
③口口② |②-③-④-|
口⑤④口 |⑤-----|
口口口口 |------|
70
口口口口 |①-----|
口①①口 |②-③-④-|
③口口② |⑤-----|
⑥⑤④⑥ |⑥-----|
71
④①④① |①---②-|
⑥口⑥口 |--③---|
②③②③ |④---⑤-|
口⑤口⑤ |--⑥---|
72
⑥③⑥③ |①---②-|
口①口① |--③---|
④口④口 |④---⑤-|
②⑤②⑤ |--⑥---|
73
口口口口 |①-----|
③①①② |②-③-④-|
口⑤④口 |⑤-----|
口口口口 |------|
74
口①①口 |①-----|
③口口② |②-③-④-|
⑦⑤④⑥ |⑤---⑥-|
⑦口口⑥ |--⑦---|
75
④③③④ |①---②-|
口②②口 |--③---|
口口口口 |④-----|
口①①口 |------|
76
口口口口 |①---②-|
口④②口 |--③---|
③④②① |④-----|
③口口① |------|
77
③口口③ |①-----|
口②②口 |--②---|
口口口口 |③-----|
口①①口 |------|
78
口①①口 |①---②-|
④口口③ |--③---|
④⑤⑤③ |④-----|
口②②口 |⑤-----|
79
口口③③ |①-----|
口①①口 |②-----|
口口口口 |③-----|
口口口② |------|
80
②口口口 |①-----|
口口口口 |②-----|
口①①口 |③-----|
③③口口 |------|
81
口口③③ |①-----|
口①①口 |②-----|
④口口④ |③-----|
口口口② |④-----|
82
②②④④ |①-----|
①口口① |②-----|
口口口口 |③-----|
口③③口 |④-----|
83
③③口口 |①-----|
口①①口 |②-----|
口口口口 |③-----|
②口口口 |------|
84
口口口② |①-----|
④口口④ |②-----|
口①①口 |③-----|
口口③③ |④-----|
85
口①①口 |①-----|
口口口口 |------|
口口口口 |------|
口口口口 |------|
86
口①①口 |①-----|
口②②口 |------|
口③③口 |②---③-|
口④④口 |--④---|
87
口口口口 |①-----|
口口口口 |------|
口口口口 |------|
①口口① |------|

不確定度: 0

最終更新:2014年04月17日 15:00