DRAGON KILLER
96 vs. Mutsuhiko Izumi

BASIC

Level: 3
BPM: 210
Notes: 277

1
口口口口 |------|
口口口口 |------|
口①口口 |------|
口口口口 |①-----|
2
口②口口 |①-----|
口口口口 |------|
口口①口 |------|
口口口口 |②-----|
3
口口①口 |①-----|
口口口口 |------|
口口口口 |------|
口口口口 |------|
4
口口口口 |①-----|
口①①口 |------|
②口口口 |------|
口口口口 |②-----|
5
口口口口 |①-----|
口口口口 |------|
口口口① |②-----|
口②②口 |------|
6
口口口口 |①-----|
口②口口 |------|
口①①口 |------|
口口口口 |②-----|
7
口口口口 |①-----|
口口①口 |------|
口口口口 |------|
口口口口 |------|
8
口口口口 |①-----|
口口口口 |------|
②口口② |②-----|
①口口① |------|
9
口口口口 |①-----|
①口口① |------|
口口口口 |------|
口口口口 |------|
10
口口口口 |------|
口口口口 |------|
口口口口 |------|
口口口口 |------|
11
①口口② |①-----|
口口口口 |------|
口口口口 |②-----|
口口口口 |------|
12
口口口口 |①-----|
口①口口 |------|
口②②口 |②-----|
口口口口 |------|
13
口口口口 |①-----|
口口口口 |------|
口口口口 |②-----|
②口口① |------|
14
口口口口 |①-----|
口②②口 |------|
口口①口 |②-----|
口口口口 |------|
15
①口口② |①-----|
口口口口 |------|
口口口口 |②-----|
口口口口 |------|
16
口口口口 |①-----|
口①口口 |------|
口②②口 |②-----|
口口口口 |------|
17
口口口口 |①-----|
口口口口 |------|
口口口口 |②-----|
②口口① |------|
18
口口口口 |①-----|
口②②口 |------|
口口①口 |②-----|
口口口口 |------|
19
口口口口 |①-----|
口口口口 |------|
口口②口 |②-----|
口①口口 |------|
20
口口②口 |①-----|
口①口口 |------|
口口口口 |②-----|
口口口口 |------|
21
①口口口 |①-----|
口口口② |------|
口口口口 |②-----|
口口口口 |------|
22
口口口口 |①-----|
口口口口 |------|
①口口口 |------|
口口口口 |------|
23
口口口口 |①-----|
口口口口 |------|
口②口口 |②-----|
口口①口 |------|
24
口②口口 |①-----|
口口①口 |------|
口口口口 |②-----|
口口口口 |------|
25
②口口① |①-----|
口口口口 |------|
口口口口 |②-----|
口口口口 |------|
26
口口口口 |①-----|
口口口口 |------|
口口①口 |------|
口口口口 |------|
27
口口口口 |①-----|
口口口口 |------|
口口②口 |②-----|
口①口口 |------|
28
口口②口 |①-----|
口①口口 |------|
口口口口 |②-----|
口口口口 |------|
29
①口口口 |①-----|
口口口② |------|
口口口口 |②-----|
口口口口 |------|
30
口口口口 |①-----|
口口口口 |------|
口①口口 |------|
口口口口 |------|
31
口口口口 |①-----|
口口口口 |------|
口②口口 |②-----|
口口①口 |------|
32
口②口口 |①-----|
口口①口 |------|
口口口口 |②-----|
口口口口 |------|
33
②口口① |①-----|
口口口口 |------|
口口口口 |②-----|
口口口口 |------|
34
口口口口 |①-----|
口口①口 |------|
口口口口 |------|
口口口口 |------|
35
口口口口 |①-----|
口口口口 |------|
口口口口 |------|
①①口口 |------|
36
口口口口 |①-----|
①①口口 |------|
口口口口 |------|
口口口口 |------|
37
口口①① |①-----|
口口②② |------|
口口口口 |②-----|
口口口口 |------|
38
口口口口 |①-----|
口口口口 |------|
口口①① |②-----|
口口②② |------|
39
口口口口 |①-----|
口口口口 |------|
口口口口 |------|
①①口口 |------|
40
口口口口 |①-----|
①①口口 |------|
口口口口 |------|
口口口口 |------|
41
口口①① |①-----|
口口②② |------|
口口口口 |②-----|
口口口口 |------|
42
口口口口 |①-----|
口口口口 |------|
口口①① |②-----|
口口②② |------|
43
口口口口 |①-----|
口②②口 |------|
口①①口 |②-----|
口口口口 |------|
44
①口口① |①-----|
口口口口 |------|
口口口口 |------|
口口口口 |------|
45
口口口口 |①-----|
口口口口 |②-----|
③口口④ |③-----|
①口口② |④-----|
46
③口口④ |①-----|
①口口② |②-----|
口口口口 |③-----|
口口口口 |④-----|
47
口①①口 |①-----|
口②②口 |------|
口口口口 |②-----|
口口口口 |------|
48
口口口口 |①-----|
口口口口 |------|
口①①口 |②-----|
口②②口 |------|
49
口口口口 |①-----|
口口口口 |②-----|
③口口④ |③-----|
①口口② |④-----|
50
③口口④ |①-----|
①口口② |②-----|
口口口口 |③-----|
口口口口 |④-----|
51
口①②口 |①-----|
口③④口 |②-----|
口口口口 |③-----|
口口口口 |④-----|
52
口口口口 |①-----|
口口口口 |②-----|
口①②口 |③-----|
口③④口 |④-----|
53
口口口口 |①-----|
口口口口 |------|
口口口② |②-----|
①口口口 |------|
54
③口口口 |①-----|
①口口② |②-----|
口口口口 |③-----|
口口口口 |------|
55
口口口口 |①-----|
口口口口 |------|
口②②口 |②-----|
口①①口 |------|
56
口②②口 |①-----|
口①①口 |------|
口口口口 |②-----|
口口口口 |------|
57
口口口口 |①-----|
口口口口 |②-----|
③口口④ |③-----|
①口口② |④-----|
58
③口口④ |①-----|
①口口② |②-----|
口口口口 |③-----|
口口口口 |④-----|
59
口口口口 |①-----|
口口口口 |②-----|
口③④口 |③-----|
口①②口 |④-----|
60
口③④口 |①-----|
口①②口 |②-----|
口口口口 |③-----|
口口口口 |④-----|
61
①口口① |①-----|
②口口② |②-----|
③口口③ |③-----|
④口口④ |④-----|
62
口④④口 |①-----|
口③③口 |②-----|
口②②口 |③-----|
口①①口 |④-----|
63
①口口① |①-----|
口口口口 |------|
口口口口 |------|
口口口口 |------|
64
口①口口 |①-----|
口②口口 |②-----|
口③口口 |③-----|
口④口口 |④-----|
65
口口口口 |①-----|
口口①① |------|
口口口口 |------|
口口口口 |------|
66
口口①口 |①-----|
口口②口 |②-----|
口口③口 |③-----|
口口④口 |④-----|
67
口口口口 |①-----|
①①口口 |------|
口口口口 |------|
口口口口 |------|
68
口口口① |①-----|
口口口② |②-----|
口口口③ |③-----|
口口口④ |④-----|
69
口口口口 |①-----|
口口口口 |------|
①①口口 |------|
口口口口 |------|
70
口口口口 |①-----|
口口①① |------|
口口口口 |------|
口口口口 |------|
71
①①口口 |①-----|
口口口口 |------|
口口口口 |------|
口口口口 |------|
72
口口口① |①-----|
口口口② |②-----|
口口口③ |③-----|
口口口④ |④-----|
73
口口口口 |①-----|
口口口口 |------|
①①口口 |------|
口口口口 |------|
74
①口口口 |①-----|
②口口口 |②-----|
③口口口 |③-----|
④口口口 |④-----|
75
口口口口 |①-----|
口口①① |------|
口口口口 |------|
口口口口 |------|
76
口口口口 |①-----|
口口口口 |------|
口②②口 |②-----|
口①①口 |------|
77
口口口口 |①-----|
口①①口 |------|
口口口口 |------|
口口口口 |------|
78
口①①口 |①-----|
口口口口 |------|
口口口口 |------|
口口口口 |------|
79
①口口① |①-----|
口口口口 |------|
口口口口 |------|
口口口口 |------|
80
口口口口 |------|
口口口口 |------|
口口口口 |------|
口口口口 |------|
81
①②④③ |①-----|
口口口口 |②-----|
口口口口 |③-----|
口口口口 |④-----|
82
口口口口 |①-----|
①②④③ |②-----|
口口口口 |③-----|
口口口口 |④-----|
83
口口口口 |①-----|
口口口口 |②-----|
①②④③ |③-----|
口口口口 |④-----|
84
口口口口 |①-----|
口口口口 |②-----|
口口口口 |③-----|
①②④③ |④-----|
85
①②④③ |①-----|
口口口口 |②-----|
口口口口 |③-----|
口口口口 |④-----|
86
口口口口 |①-----|
①②④③ |②-----|
口口口口 |③-----|
口口口口 |④-----|
87
口口口口 |①-----|
口口口口 |②-----|
④①①④ |③-----|
③②②③ |④-----|
88
②③③② |①-----|
①④④① |②-----|
口口口口 |③-----|
口口口口 |④-----|
89
口口口口 |①-----|
口口口口 |②-----|
④①①④ |③-----|
③②②③ |④-----|
90
口①①口 |①-----|
口①①口 |------|
口口口口 |------|
口口口口 |------|
91
口口口口 |------|
口口口口 |------|
口口口口 |------|
口口口口 |------|
92
口口口口 |①-----|
①口口① |------|
①口口① |------|
口口口口 |------|

不確定度: 0

最終更新:2014年04月17日 14:59