DRAGON KILLER
96 vs. Mutsuhiko Izumi

ADVANCED

Level: 7
BPM: 210
Notes: 410

1
口口口口 |------|
口口口口 |------|
口①①口 |------|
口口口口 |①-----|
2
口口口口 |①-----|
口①①口 |------|
口口口口 |------|
②口口② |②-----|
3
①口口① |①-----|
口口口口 |------|
口口口口 |------|
口口口口 |------|
4
口口口口 |①-----|
②①①② |------|
口口口口 |------|
口口口口 |②-----|
5
口口口口 |①-----|
口口口口 |------|
①口口① |②-----|
口②②口 |------|
6
口口口口 |①-----|
口口口口 |------|
口①①口 |------|
②口口② |②-----|
7
①口口① |①-----|
口口口口 |------|
口口口口 |------|
口口口口 |------|
8
口口口口 |①-----|
口②②口 |------|
口①①口 |②-----|
口口口口 |------|
9
口①①口 |①-----|
口口口口 |------|
口口口口 |------|
口口口口 |------|
10
口口口口 |------|
口口口口 |------|
口口口口 |------|
口口口口 |------|
11
①②口口 |①-----|
口口④③ |②-----|
口口口口 |③-----|
口口口口 |④-----|
12
口口口口 |①-----|
口口口口 |②-----|
①②口口 |③-----|
口③③口 |------|
13
口口②① |①-----|
③④口口 |②-----|
口口口口 |③-----|
口口口口 |④-----|
14
口口口口 |①-----|
口口口口 |②-----|
口口②① |③-----|
③口口③ |------|
15
①②口口 |①-----|
口口④③ |②-----|
口口口口 |③-----|
口口口口 |④-----|
16
口口口口 |①-----|
口口口口 |②-----|
①②口口 |③-----|
口③③口 |------|
17
口口②① |①-----|
③④口口 |②-----|
口口口口 |③-----|
口口口口 |④-----|
18
①口口① |①-----|
④口口④ |②-----|
口②②口 |③-----|
③口口③ |④-----|
19
口③③口 |①-----|
口①①口 |②-----|
口口口口 |③-----|
口②④口 |④-----|
20
①口口③ |①-----|
①口口③ |②-----|
口口口口 |③-----|
口②④口 |④-----|
21
口口口口 |①-----|
口口口口 |②-----|
口①①口 |③-----|
③②④③ |④-----|
22
口口口口 |①-----|
①口口① |②-----|
口口口口 |------|
口②③口 |③-----|
23
口③③口 |①-----|
口①①口 |②-----|
口口口口 |③-----|
口②④口 |④-----|
24
①口口③ |①-----|
①口口③ |②-----|
口口口口 |③-----|
口②④口 |④-----|
25
口口口口 |①-----|
口③③口 |②-----|
①口口① |③-----|
口②④口 |④-----|
26
①口口① |①-----|
口口口口 |②-----|
口口口口 |------|
口②③口 |③-----|
27
口③③口 |①-----|
口①①口 |②-----|
口口口口 |③-----|
口②④口 |④-----|
28
①口口③ |①-----|
①口口③ |②-----|
口口口口 |③-----|
口②④口 |④-----|
29
口口口口 |①-----|
口口口口 |②-----|
口①①口 |③-----|
③②④③ |④-----|
30
口口口口 |①-----|
口口口口 |②-----|
①口口① |------|
口②③口 |③-----|
31
口③③口 |①-----|
口①①口 |②-----|
口口口口 |③-----|
口②④口 |④-----|
32
①口口③ |①-----|
①口口③ |②-----|
口口口口 |③-----|
口②④口 |④-----|
33
口口口口 |①-----|
口③③口 |②-----|
①口口① |③-----|
口②④口 |④-----|
34
①口口① |①-----|
口口口口 |②-----|
口口口口 |------|
口②③口 |③-----|
35
口口口② |①-----|
口口③口 |------|
口口口口 |②-----|
①口口口 |③-----|
36
口口②口 |①-----|
口口口口 |------|
口口口① |②-----|
口口口口 |------|
37
①②口口 |①-----|
口③口口 |------|
口口口口 |②-----|
口口口口 |③-----|
38
口口口口 |①-----|
③口口口 |②-----|
④①口口 |③-----|
口②口口 |④-----|
39
口口口② |①-----|
口口口③ |------|
口口口口 |②-----|
口口①口 |③-----|
40
口口口口 |①-----|
口口②口 |------|
口口口① |②-----|
口口口口 |------|
41
口口口口 |①-----|
口口口口 |②-----|
③④口口 |③-----|
①②口口 |④-----|
42
③④口口 |①-----|
①②口口 |②-----|
口口口口 |③-----|
口口口口 |④-----|
43
口口口口 |①-----|
口口口口 |②-----|
③④④③ |③-----|
①②②① |④-----|
44
③口口③ |①-----|
①②②① |②-----|
口口口口 |③-----|
口口口口 |------|
45
口口①口 |①-----|
口口口② |------|
口口口③ |②-----|
口口口口 |③-----|
46
口口口口 |①-----|
口口④口 |②-----|
口口③口 |③-----|
口口②① |④-----|
47
①口口口 |①-----|
②口口口 |②-----|
③口口口 |③-----|
④口口口 |④-----|
48
口④口口 |①-----|
口③口口 |②-----|
口②口口 |③-----|
口①口口 |④-----|
49
口口口口 |①-----|
口口口口 |②-----|
口口④③ |③-----|
口口②① |④-----|
50
口口④③ |①-----|
口口②① |②-----|
口口口口 |③-----|
口口口口 |④-----|
51
①②口口 |①-----|
③④口口 |②-----|
口口口口 |③-----|
口口口口 |④-----|
52
口口口口 |①-----|
口口口口 |②-----|
①②口口 |③-----|
③④口口 |④-----|
53
口口①口 |①-----|
口口②口 |②-----|
口口③口 |③-----|
口口④口 |④-----|
54
口口口① |①-----|
口口口② |②-----|
口口口③ |③-----|
口口口④ |④-----|
55
①①口口 |①-----|
口口口口 |------|
口口口口 |②-----|
②③口口 |③-----|
56
口口口口 |①-----|
③④口口 |②-----|
①②口口 |③-----|
口口口口 |④-----|
57
口口口① |①-----|
口口口② |②-----|
口口口③ |③-----|
口口口④ |④-----|
58
口口④口 |①-----|
口口③口 |②-----|
口口②口 |③-----|
口口①口 |④-----|
59
口口口口 |①-----|
口口口口 |②-----|
③④口口 |③-----|
①②口口 |④-----|
60
③④口口 |①-----|
①②口口 |②-----|
口口口口 |③-----|
口口口口 |④-----|
61
口口口口 |①-----|
口口口口 |②-----|
③④口口 |③-----|
①②口口 |④-----|
62
①口口口 |①-----|
口口口口 |------|
口口口口 |------|
口口口口 |------|
63
口口口① |①-----|
口口口口 |------|
口口口口 |------|
口口口口 |------|
64
口口口口 |①-----|
口口口口 |②-----|
口口①② |③-----|
口口③④ |④-----|
65
②①①口 |①-----|
④③口口 |②-----|
口口口口 |③-----|
口口口口 |④-----|
66
口口口口 |①-----|
口口口口 |②-----|
①②口口 |③-----|
④③口口 |④-----|
67
口口③② |①-----|
口口①① |②-----|
口口口口 |③-----|
口口口④ |④-----|
68
口口口口 |①-----|
口口口口 |②-----|
口口①② |③-----|
口口③④ |④-----|
69
口口口口 |①-----|
①①口口 |------|
口②②口 |------|
口口口口 |②-----|
70
口①①口 |①-----|
口②②口 |------|
口口口口 |------|
口口口口 |②-----|
71
①口②① |①-----|
口口口③ |②-----|
口口④口 |③-----|
口口口口 |④-----|
72
口口口口 |①-----|
口④④口 |②-----|
口口口③ |③-----|
口口②① |④-----|
73
②①①口 |①-----|
③口口口 |②-----|
④口口口 |③-----|
口口口口 |④-----|
74
口口口口 |①-----|
口④④口 |②-----|
口③口口 |③-----|
①②口口 |④-----|
75
①口口① |①-----|
口口口口 |------|
口口口口 |------|
口口口口 |------|
76
口口口口 |①-----|
口口口口 |------|
口②②口 |②-----|
口①①口 |------|
77
口口口口 |①-----|
口①①口 |------|
口口口口 |------|
口口口口 |------|
78
口①①口 |①-----|
口口口口 |------|
口口口口 |------|
口口口口 |------|
79
①口口① |①-----|
口口口口 |------|
口①①口 |------|
口口口口 |------|
80
口口口口 |------|
口口口口 |------|
口口口口 |------|
口口口① |①-----|
81
①口口③ |①---②-|
口⑤⑦口 |③---④-|
口②④口 |⑤---⑥-|
⑥口口⑧ |⑦---⑧-|
82
口①③口 |①---②-|
⑤口口⑦ |③---④-|
②口口④ |⑤---⑥-|
口⑥⑧口 |⑦---⑧-|
83
①口口③ |①---②-|
口⑤⑦口 |③---④-|
口②④口 |⑤---⑥-|
⑥口口⑧ |⑦---⑧-|
84
口⑤口口 |①---②-|
①口口③ |③---④-|
⑥⑦⑦口 |⑤---⑥-|
口②④口 |⑦-----|
85
口口③口 |①---②-|
⑤①①⑦ |③---④-|
口口口④ |⑤---⑥-|
②⑥⑧口 |⑦---⑧-|
86
口①③口 |①---②-|
口⑤⑦口 |③---④-|
②口口④ |⑤---⑥-|
⑥口口⑧ |⑦---⑧-|
87
①口口③ |①---②-|
口口口⑦ |③---④-|
⑤②④口 |⑤---⑥-|
口⑥⑧口 |⑦---⑧-|
88
①②③口 |①-②-③-|
④⑤⑥口 |④-⑤-⑥-|
⑦⑧⑨口 |⑦-⑧-⑨-|
⑩⑪⑫口 |⑩-⑪-⑫-|
89
口③②① |①-②-③-|
口⑥⑤④ |④-⑤-⑥-|
口⑨⑧⑦ |⑦-⑧-⑨-|
口口口⑩ |⑩-----|
90
①口口① |①-----|
口口口口 |------|
口口口口 |------|
口口口口 |------|
91
口口口口 |------|
口口口口 |------|
口口口口 |------|
口口口口 |------|
92
口口口口 |①-----|
口①①口 |------|
口①①口 |------|
口口口口 |------|

不確定度: 0

最終更新:2014年04月17日 14:59