Windy Fairy
DJ TOTTO

ADVANCED

Level: 7
BPM: 180
Notes: 514

1
口口口口 |----|
口口口口 |----|
口口口口 |----|
口口口口
2
口①口口 |①---|
口④口口 |--②-|
口口③口 |③-④-|
口②口口
3
口口①口 |①---|
口口口口 |----|
口②口口 |②---|
口口口口
4
口口口① |①---|
口口口④ |--②-|
③口口口 |③-④-|
口口口②
5
①口口口 |①---|
口③②口 |②---|
口口口口 |③---|
口口口口
6
口口口口 |①---|
④口口口 |--②-|
口口①③ |③-④-|
②口口口
7
口②口① |①---|
口口口口 |----|
口口口口 |②---|
口口口口
8
口口①口 |①---|
口口口口 |----|
口口口口 |----|
口口口口
9
口口口口 |----|
口口口口 |----|
口口口口 |----|
口口口口
10
口口口口 |--①-|
口口①口 |②-③-|
口②口⑤ |④-⑤-|
④口口③
11
口口口口 |①---|
①口口口 |----|
口③口口 |②-③-|
口口②口
12
口口⑤口 |①---|
口④①口 |②-③-|
口口③口 |④-⑤-|
口②口口
13
①口口① |①---|
②口口② |②---|
③口口③ |③---|
口口口口
14
口①口口 |--①-|
口口②口 |②-③-|
⑤③口口 |④-⑤-|
口口④口
15
口口口口 |①---|
口口③① |----|
口②口口 |②-③-|
口口口口
16
①①口口 |①--②|
口⑤口④ |--③-|
口口口口 |④-⑤-|
口③口②
17
口口口口 |①---|
口口口口 |----|
口口口口 |----|
口口①口
18
口口口口 |--①-|
口①口口 |②-③-|
⑤口②口 |④-⑤-|
③口口④
19
口口口口 |①---|
口口口① |----|
口口③口 |②-③-|
口②口口
20
口⑤口口 |①---|
口①④口 |②-③-|
口③口口 |④-⑤-|
口口②口
21
①口口① |①---|
②口口② |②---|
③口口③ |③---|
口口口口
22
口口①口 |--①-|
口②口口 |②-③-|
口口③⑤ |④-⑤-|
口④口口
23
③口口口 |①--②|
①⑤②口 |--③-|
口口④口 |④-⑤-|
口口口口
24
口口①① |①---|
口口口口 |----|
口口口口 |----|
口口口口
25
口口口口 |①---|
口口口口 |----|
口口口口 |----|
口①①口
26
口口①口 |①---|
②口口口 |--②-|
口口口③ |③-④-|
④口口口
27
口口口口 |①---|
口口口③ |②---|
口口②口 |③---|
口口口①
28
口口①① |①---|
口口口口 |----|
口口口口 |----|
口口口口
29
口口口口 |--①-|
口口①口 |②-③-|
口②③口 |④-⑤-|
口④⑤口
30
口口口口 |①---|
口口口④ |--②-|
③口口口 |③-④-|
①口口②
31
①口口口 |①---|
口口②口 |②---|
口③口口 |③---|
口口口口
32
④口⑤口 |①-②-|
口口⑤③ |③-④-|
②口口口 |⑤---|
口口口①
33
口⑤口④ |①-②-|
③⑤口口 |③-④-|
口口口② |⑤---|
①口口口
34
口口①口 |①---|
②口口口 |--②-|
口口口③ |③-④-|
④口口口
35
口口口口 |①---|
口口口③ |②---|
口口②口 |③---|
口口口①
36
口口①① |①---|
口口口口 |----|
口口口口 |----|
口口口口
37
口口口口 |--①-|
口口①口 |②-③-|
口②③口 |④-⑤-|
口④⑤口
38
口口口口 |①---|
口口口④ |--②-|
③口口口 |③-④-|
①口口②
39
①③口口 |①---|
口口②口 |②---|
口口口口 |③---|
口口口口
40
口口口① |①-②-|
②口口口 |③-④-|
口口⑤③ |⑤---|
④口⑤口
41
①口口口 |①-②-|
口口口② |③-④-|
③⑤口口 |⑤---|
口⑤口④
42
口口①口 |①---|
③口②口 |②-③-|
口口口④ |④-⑤-|
⑤口口口
43
口口口口 |①---|
口口口③ |②---|
口口②口 |③---|
口口口①
44
口口①① |①---|
口③口口 |②---|
②口口口 |③---|
口口口口
45
①①口口 |①-②-|
口口②口 |③-④-|
口③④口 |⑤-⑥-|
口⑤⑥口
46
口口口口 |①---|
口②口⑤ |②-③-|
④口口口 |④-⑤-|
①口口③
47
①口口口 |①---|
口口②口 |②---|
口③口口 |③---|
口口口口
48
④口⑤口 |①-②-|
口口⑤③ |③-④-|
②口口口 |⑤---|
口口口①
49
口⑤口④ |①-②-|
③⑤口口 |③-④-|
口口口② |⑤---|
①口口口
50
口口①口 |①---|
③口口② |②-③-|
口口口④ |④-⑤-|
⑤口口口
51
口口口口 |①---|
口口口③ |②---|
口口②口 |③---|
口口口①
52
口口①① |①---|
口③口口 |②---|
②口口口 |③---|
口口口口
53
①①口口 |①-②-|
口口②口 |③-④-|
口③④口 |⑤-⑥-|
口⑤⑥口
54
口口口口 |①---|
口②口⑤ |②-③-|
④口口口 |④-⑤-|
①口口③
55
①③口口 |①---|
口口②口 |②---|
口口口口 |③---|
口口口口
56
口口口① |①-②-|
②口口口 |③-④-|
口口⑤③ |⑤---|
④口⑤口
57
①口口口 |①-②-|
口口口② |③-④-|
③⑤口口 |⑤---|
口⑤口④
58
口口口① |①--②|
口口②口 |--③-|
④口口口 |④---|
口口③口
59
①口口口 |①--②|
口②口口 |--③-|
口口口④ |④---|
口③口口
60
口①②口 |①-②-|
⑤口口⑥ |③-④-|
口③④口 |⑤-⑥-|
口口口口
61
口③④口 |①-②-|
口口口口 |③-④-|
口⑤口口 |⑤---|
①口口②
62
①口口口 |①--②|
口②口口 |--③-|
口口口④ |④---|
口③口口
63
口口口① |①--②|
口口②口 |--③-|
④口口口 |④---|
口口③口
64
口②①口 |①-②-|
⑥口口⑤ |③-④-|
口④③口 |⑤-⑥-|
口口口口
65
口④③口 |①-②-|
口口口口 |③-④-|
口口口⑤ |⑤---|
②口口①
66
口口口① |①--②|
口口②口 |--③-|
④口口口 |④---|
口口③口
67
①口口口 |①--②|
口②口口 |--③-|
口口口④ |④---|
口③口口
68
口①②口 |①-②-|
⑤口口⑥ |③-④-|
口③④口 |⑤-⑥-|
口口口口
69
口③④口 |①-②-|
口口口口 |③-④-|
口⑤口口 |⑤---|
①口口②
70
口口口① |①-②-|
③口口② |③-④-|
④口⑤口 |⑤-⑥-|
口口⑥口
71
口口⑥④ |①-②-|
口③口口 |③-④-|
⑤口口② |⑤-⑥-|
口①口口
72
①口口口 |①-②-|
②⑤口口 |③-④-|
口⑥③口 |⑤-⑥-|
口口④口
73
④⑥口⑤ |①-②-|
口口口③ |③-④-|
②口口口 |⑤-⑥-|
口口口①
74
口口①口 |①-②-|
口③②口 |③-④-|
口④口⑤ |⑤-⑥-|
口口口⑥
75
口口口口 |①-②-|
口口③口 |③-④-|
①⑤④口 |⑤-⑥-|
②⑥口口
76
②③口口 |①---|
口口口口 |----|
口口口口 |--②③|
口口①①
77
口口①口 |①---|
口口口口 |----|
口④⑤口 |②③④⑤|
口②③口
78
口口口② |①---|
③①口口 |--②-|
口口口④ |③-④-|
口口口口
79
口②③口 |①---|
口口口口 |②---|
口口口口 |③---|
①口口口
80
①口口② |①---|
③口口口 |--②-|
口口口④ |③-④-|
口口口口
81
口口口口 |①---|
口口④口 |--②-|
口③口口 |③-④-|
①口②口
82
③①口口 |①-②-|
⑤⑥口口 |③-④-|
口口口口 |⑤-⑥-|
④②口口
83
口口③① |①-②-|
口口⑥⑤ |③-④-|
口口口口 |⑤-⑥-|
口口④②
84
②口口② |①---|
口口口口 |--②-|
口①①口 |----|
口口口口
85
口口口口 |①---|
口②②口 |--②-|
口口口口 |----|
①口口①
86
口口口口 |①---|
④口口口 |--②-|
口①口③ |③-④-|
②口口口
87
口②③① |①---|
口口口口 |②---|
口口口口 |③---|
口口口口
88
①口口口 |①---|
口口口④ |--②-|
③口口口 |③-④-|
口口口②
89
口①口口 |①---|
口口口口 |②---|
口③②口 |③---|
口口口口
90
口口口口 |①---|
②口口口 |--②-|
④口口③ |③-④-|
①口口口
91
口口口口 |①---|
口④口口 |--②-|
口口③口 |③-④-|
口②口①
92
口口①口 |①---|
②口口③ |②---|
口口口口 |③---|
口口口口
93
①口口① |①---|
口口口口 |----|
口④⑤口 |②③④⑤|
口②③口
94
口口口口 |①---|
④①口口 |--②-|
口口口③ |③-④-|
②口口口
95
口口口① |①---|
口口口口 |----|
口口②口 |②---|
口口口口
96
①口②口 |①---|
③口口口 |--②-|
口口口④ |③-④-|
口口口口
97
口⑤口口 |①---|
口口④口 |②-③-|
口口口口 |④-⑤-|
①③口②
98
口口口① |①-②-|
口口口② |③---|
口④口③ |④---|
口口口口
99
①口口口 |①-②-|
②口口口 |③---|
③口④口 |④---|
口口口口
100
口②②口 |①---|
口①①口 |--②-|
②口口② |----|
口①①口
101
②口口② |①---|
①口口① |--②-|
口②②口 |----|
①口口①
102
口口①口 |①-②-|
口②口口 |③-④-|
口⑥口③ |⑤-⑥-|
④口⑤口
103
口②③口 |①---|
口口口① |②---|
口口口口 |③---|
口口口口
104
①⑤口口 |①-②-|
口口⑥④ |③-④-|
口口口② |⑤-⑥-|
口③口口
105
口口口口 |①---|
口口口口 |②---|
①口口口 |③---|
③口口②
106
口④口口 |①-②-|
⑥口③口 |③-④-|
口②口⑤ |⑤-⑥-|
口口①口
107
口④口① |①---|
口口口口 |--②-|
口口③口 |③-④-|
口②口口
108
②口⑥④ |①-②-|
口口口口 |③-④-|
口口口口 |⑤-⑥-|
①⑤口③
109
口③口口 |①---|
口口口口 |--②-|
口口口口 |③-④-|
②口①④
110
⑥⑥⑤⑤ |①-②-|
④④③③ |③-④-|
②②①① |⑤-⑥-|
口口口口
111
口口口口 |①-②-|
⑥⑥⑤⑤ |③-④-|
④④③③ |⑤-⑥-|
②②①①
112
口①①口 |①---|
口口口口 |--②-|
口口口口 |----|
②口口②
113
①口口① |①---|
③口口③ |②---|
口口口口 |③---|
口②②口
114
口口口口 |①---|
口①①口 |----|
口①①口 |----|
口口口口

不確定度: 0

最終更新:2014年04月17日 14:57