101回目の呪い
ゴールデンボンバー

EXTREME

Level: 9
BPM: 178
Notes: 493

1
口口口口 |----|
口口口口 |----|
口口口口 |----|
口口口口 |----|
2
③口口口 |①-②-|
⑤①⑥⑥ |③-④-|
⑤口②口 |--⑤-|
⑤口口④ |--⑥-|
3
口③口口 |----|
口口口口 |①-②-|
口④①① |--③-|
口口②② |--④-|
4
口口①口 |①---|
③④⑤口 |②-③-|
口口②口 |--④-|
口口口口 |--⑤-|
5
口口口口 |①---|
口口口口 |----|
口口口① |----|
口口口口 |----|
6
口口口③ |①-②-|
口口①口 |③-④-|
口②口⑤ |--⑤-|
④⑦⑥口 |⑥-⑦-|
7
口④口口 |①---|
口口②口 |②-③-|
①⑤③口 |--④-|
口口口口 |--⑤-|
8
口口①口 |①---|
③口口④ |②-③-|
口口②口 |----|
口口口口 |④---|
9
口③口口 |①---|
③口口口 |②-③-|
口口②口 |----|
口口口① |----|
10
口口口① |①-②-|
口口②口 |③-④-|
⑤口④口 |--⑤-|
口⑥⑦③ |⑥-⑦-|
11
⑤口口② |①---|
口口④口 |②-③-|
口④口① |--④-|
口口口③ |--⑤-|
12
口④④口 |①---|
口②口⑤ |②-③-|
⑤口②口 |--④-|
①③③口 |--⑤-|
13
口口口口 |①---|
①口口口 |----|
口口口① |----|
口口口口 |----|
14
口口④④ |①---|
⑤③②口 |②-③-|
口②③⑤ |--④-|
①①口口 |--⑤-|
15
③③⑤口 |①---|
口④口① |②-③-|
①④口口 |--④-|
口口②② |--⑤-|
16
口口口口 |①---|
口口①口 |----|
口口口口 |----|
口口口口 |----|
17
⑥⑥口④ |①-②-|
③③口口 |③---|
①口口④ |④-⑤-|
②口⑤⑤ |--⑥-|
18
口口口口 |----|
①口口口 |----|
口①口口 |----|
口口口口 |①---|
19
②口口③ |①---|
口①⑤④ |②---|
①口④⑤ |③-④-|
③口口② |--⑤-|
20
口①①口 |①---|
口口③口 |--②-|
口②口口 |----|
口口口口 |③---|
21
口口口口 |----|
⑤⑤口口 |①---|
③①②口 |②-③-|
④口口口 |④-⑤-|
22
口口口口 |①---|
口口①① |----|
口口口口 |----|
口②口口 |②---|
23
口③⑤口 |①---|
③口口⑤ |②-③-|
口④②口 |----|
口口①口 |④-⑤-|
24
口口③③ |--①-|
口①①口 |--②-|
口口口口 |----|
③②②口 |--③-|
25
①①口口 |----|
④口⑤口 |①---|
②④口③ |②-③-|
④口⑤① |④-⑤-|
26
口口口② |①---|
口①口口 |②---|
口口口口
口口口口

口③口口
口⑥口⑤
④口⑤口 |③-④-|
口⑥口⑤ |⑤-⑥-|
27
⑤口⑥口 |①---|
口⑤①④ |②---|
⑤口⑥口 |③-④-|
②口③口 |⑤-⑥-|
28
口①口口 |①---|
口口口口 |②---|
口口口口
口口口②

口⑥口⑤
④口⑤口
口⑥口⑤ |③-④-|
口③口口 |⑤-⑥-|
29
⑥口①⑥ |①---|
口④④③ |②---|
②口口口 |③-④-|
⑤口口⑤ |⑤-⑥-|
30
口①①口 |①---|
④⑤⑥⑦ |②-③-|
口口②③ |④-⑤-|
口口口口 |⑥-⑦-|
31
①②口口 |①-②-|
口口口口 |③-④-|
口口③④ |⑤-⑥-|
⑤⑥⑦⑧ |⑦-⑧-|
32
①口口口 |①---|
①③②口 |②③④⑤|
口⑤④口
口口口口

口口⑥⑥
⑨口口⑩
⑦口口⑧ |⑥---|
口口口口 |⑦⑧⑨⑩|
33
⑤口口口 |①---|
口口④口 |②③④⑤|
口③口口
①①口②

口口口口
口⑨口⑫
⑦口⑧⑩ |⑥⑦⑧⑨|
⑪⑬⑥口 |⑩⑪⑫⑬|
34
口①①① |①---|
③口口口 |②-③-|
③②口口
口口口口

⑥口口⑥
口④⑤口
口口④⑤ |④-⑤-|
口口口口 |--⑥-|
35
④③③口 |①---|
口口口口 |②-③-|
口口口④ |----|
①②②① |④---|
36
口口口① |①---|
口口口③ |②-③-|
口口③口
①②口口

⑥口口⑥
⑤口④口
⑤④口口 |④-⑤-|
口口口口 |--⑥-|
37
口③③④ |①---|
口口口口 |②-③-|
④口口口 |----|
①②②① |④---|
38
①口口口 |①---|
口口③② |②-③-|
口口口③
口口口①

口④口口
口口口口
⑤口④口 |④--⑤|
⑤⑥口⑥ |--⑥-|
39
口④①① |①---|
口口③② |②-③-|
⑤口④③ |④--⑤|
⑤⑥口⑥ |--⑥-|
40
①口口口 |①---|
①③②口 |②③④⑤|
口⑤④口
口口口口

口口⑥⑥
⑨口口⑩
⑦口口⑧ |⑥---|
口口口口 |⑦⑧⑨⑩|
41
⑤口口口 |①---|
口口④口 |②③④⑤|
口③口口
①①口②

口口口口
口⑨口⑫
⑦口⑧⑩ |⑥⑦⑧⑨|
⑪⑬⑥口 |⑩⑪⑫⑬|
42
口①①① |①---|
③口口口 |②-③-|
③②口口
口口口口

⑥口口⑥
口④⑤口
口口④⑤ |④-⑤-|
口口口口 |--⑥-|
43
④③③口 |①---|
口口口口 |②-③-|
口口口④ |----|
①②②① |④---|
44
口口口① |①---|
口口口③ |②-③-|
口口③口
①②口口

⑥口口⑥
⑤口④口
⑤④口口 |④-⑤-|
口口口口 |--⑥-|
45
口③③④ |①---|
口口口口 |②-③-|
④口口口 |----|
①②②① |④---|
46
①口口口 |①---|
口口③② |②-③-|
口口口③
口口口①

口④口口
口口口口
⑤口④口 |④--⑤|
⑤⑥口⑥ |--⑥-|
47
口④①① |①---|
口口③② |②-③-|
⑤口④③ |④--⑤|
⑤⑥口⑥ |--⑥-|
48
①口口口 |①---|
①③②口 |②③④⑤|
口⑤④口
口口口口

口口⑥⑥
⑨口口⑩
⑦口口⑧ |⑥---|
口口口口 |⑦⑧⑨⑩|
49
③口口口 |①---|
口⑤②口 |②③④⑤|
口口口口
①①④口

口口口口
⑨口口⑫
口⑦⑧⑩ |⑥⑦⑧⑨|
⑪⑬口⑥ |⑩⑪⑫⑬|
50
②①①① |①-②-|
口④⑥口 |③-④-|
③⑤口⑦ |⑤---|
口口口口 |⑥-⑦-|
51
④口②口 |①-②-|
口口口口 |--③-|
口口口口 |--④-|
口③口① |----|
52
口口口① |--①-|
口⑤③口 |②-③-|
⑤口④② |④---|
口口口口 |⑤---|
53
⑥②③③ |①-②-|
口④口口 |--③-|
口口⑤口 |--④-|
①口口口 |⑤-⑥-|
54
口③②口 |①---|
③口口② |②---|
④口口① |③---|
口④①口 |④---|
55
③口口② |①---|
口④①口 |②---|
口③②口 |③---|
④口口① |④---|
56
④⑤口⑤ |①-②-|
口⑥口① |③-④-|
③口⑥口 |⑤---|
⑦口⑦② |⑥-⑦-|
57
③口口口 |----|
②口口口 |①---|
①口口口 |②---|
口口口口 |③---|
58
口口口口 |①-②-|
口口②① |③-④-|
④③口口 |----|
口口口口 |----|
59
①②口口 |①-②-|
口口口口 |③-④-|
口口口口 |----|
口口③④ |----|
60
口口口口 |①-②-|
口口②① |③-④-|
④③口口 |----|
口口口口 |----|
61
①②口口 |①-②-|
口口口口 |③-④-|
口口口口 |----|
口口③④ |----|
62
口口口口 |①-②-|
口口口口 |③-④-|
⑤②④⑦ |⑤-⑥-|
①⑥⑧③ |⑦-⑧-|
63
③口④口 |①-②-|
口③口② |③-④-|
口①④口
①口口②

口⑤口⑥
⑤口⑧口
⑦⑧口⑥ |⑤-⑥-|
⑧⑦⑧口 |⑦-⑧-|

不確定度: 0

最終更新:2014年12月11日 22:44