Mono Logic
DJ NAGAI feat. Ayumi Nomiya

ADVANCED

Level: 8
BPM: 186
Notes: 615

1
口口口口 |----|
口口口口 |----|
口口口口 |----|
口口口口 |----|
2
口口口口 |①-②-|
⑦口②口 |③-④-|
口③口⑥ |⑤-⑥-|
①⑤④⑧ |⑦-⑧-|
3
口②①口 |--①-|
③口口③ |②---|
③口口③ |----|
口口口口 |③---|
4
口口口④ |--①-|
⑤①口口 |②-③-|
口口②⑥ |④-⑤-|
⑦③口口 |⑥-⑦-|
5
口口口口 |--①-|
口口③④ |②-③-|
⑤②口口 |--④-|
口口①⑥ |⑤-⑥-|
6
口⑦口口 |--①-|
口①口⑥ |②-③-|
⑤口②口 |④-⑤-|
口③④口 |⑥-⑦-|
7
⑦口口口 |--①-|
①口口⑥ |②-③-|
⑤口口② |④-⑤-|
口③④口 |⑥-⑦-|
8
口口口④ |--①-|
⑤①口口 |②-③-|
口口②⑥ |④-⑤-|
⑦③口口 |⑥-⑦-|
9
口口⑦口 |--①-|
口⑥③口 |②-③-|
口②⑤口 |④-⑤-|
口④①口 |⑥-⑦-|
10
①口口② |①---|
①口口② |--②-|
口口口口 |----|
口③③口 |③---|
11
口①①口 |①---|
②口口③ |②-③-|
②④④③ |--④-|
口口口口 |----|
12
①口④④ |①---|
口③②口 |②-③-|
口口⑤⑤ |--④-|
口口口口 |--⑤-|
13
口口口口 |----|
口口口口 |----|
②②口口 |①---|
①①口口 |②---|
14
④③②④ |①---|
①①口口 |②-③-|
⑤口口⑤ |--④-|
口口口口 |--⑤-|
15
口口口口 |----|
②口②口 |----|
口口口口 |①---|
口①口① |②---|
16
口口口口 |①---|
口口口口 |----|
口①①口
口口口口

口口口口
口③口③
口④④口 |②-③-|
②口②口 |--④-|
17
①口①口 |----|
口②口② |----|
口口口口 |①---|
口口口口 |②---|
18
口②口② |①---|
⑤口⑤口 |②---|
①③①④ |③-④-|
口③口④ |--⑤-|
19
口口口口 |----|
口口口口 |----|
口口口口 |----|
口口口口 |----|
20
②口口③ |①---|
口口⑤口 |②-③-|
口①①口 |--④-|
口口口④ |--⑤-|
21
口口口口 |--①-|
口④口口 |②---|
口①②口 |③---|
口口③口 |--④-|
22
口口口口 |①---|
口口①口 |②-③-|
②口口③ |----|
口④口口 |--④-|
23
口口口口 |①---|
②口口③ |②-③-|
口④口口 |----|
口口①口 |--④-|
24
②口口口 |①---|
⑤口口④ |②---|
口口①口 |③---|
口③口口 |④-⑤-|
25
口②口口 |----|
③口口④ |①---|
③口①④ |②---|
口口口口 |③-④-|
26
口口口口 |----|
口口口口 |----|
口口口口 |----|
口口口口 |----|
27
口口口口 |----|
口口①口 |----|
口②口口 |①-②-|
口口③口 |③---|
28
①口口① |①---|
②口口③ |②-③-|
口口口口
②口口③

⑥口口口
口⑥口口
④口口⑤ |--④-|
口④⑤口 |⑤-⑥-|
29
口②③① |①---|
⑤⑤①口 |②-③-|
④②③④ |--④-|
口口口口 |--⑤-|
30
口口口口 |①---|
口口①① |②-③-|
口口口口
③③②②

口口口④
口口口⑥
⑤口口口 |--④-|
口口口口 |⑤-⑥-|
31
①口口口 |①---|
②④②口 |②-③-|
口③④③ |--④-|
口口口口 |----|
32
④③②口 |①---|
口口口⑤ |②-③-|
②⑥口③ |--④-|
口①①口 |⑤-⑥-|
33
口口口口 |①---|
口②③口 |②-③-|
口口口口 |--④-|
口④④① |----|
34
④口口④ |①---|
③口口③ |②---|
②口口② |③---|
①口口① |④---|
35
口②③口 |①---|
口①①口 |②-③-|
④②③④ |--④-|
口④④口 |----|
36
①口口① |①---|
②口口③ |②-③-|
口口口口
②口口③

⑥口口口
口⑥口口
④口口⑤ |--④-|
口④⑤口 |⑤-⑥-|
37
口②③① |①---|
⑤⑤①口 |②-③-|
④②③④ |--④-|
口口口口 |--⑤-|
38
口口口口 |①---|
口口①① |②-③-|
口口口口
③③②②

口口口④
口口口⑥
⑤口口口 |--④-|
口口口口 |⑤-⑥-|
39
①口口口 |①---|
②④②口 |②-③-|
口③④③ |--④-|
口口口口 |----|
40
④③②口 |①---|
口口口⑤ |②-③-|
②⑥口③ |--④-|
口①①口 |⑤-⑥-|
41
⑤口口⑤ |①---|
口②③口 |②-③-|
口口口口 |--④-|
口④④① |--⑤-|
42
口口口口 |----|
①①口口 |----|
口②②口 |--①-|
口口③③ |②-③-|
43
②口口③ |--①-|
口口口① |--②-|
①④④② |--③-|
③口口口 |--④-|
44
口①口口 |----|
①②口口 |----|
口口②① |----|
口口①口 |①-②-|
45
口口①口 |--①-|
口⑤②① |②---|
①②④口 |--③-|
③①口口 |④-⑤-|
46
④口口① |①-②-|
口口③口 |③-④-|
⑤②口⑥ |--⑤-|
口⑦口口 |⑥-⑦-|
47
口④口⑦ |①-②-|
⑥口③口 |③-④-|
口②口⑤ |--⑤-|
口口①口 |⑥-⑦-|
48
①口口⑦ |①-②-|
口⑤口口 |③-④-|
口口②⑧ |⑤-⑥-|
③⑥口④ |⑦-⑧-|
49
口①口口 |①-②-|
③口⑤口 |③-④-|
口口②口 |--⑤-|
口口口④ |----|
50
①口口④ |①-②-|
口③⑤口 |③-④-|
口⑥口② |--⑤-|
口口口⑦ |⑥-⑦-|
51
⑥口⑦④ |①-②-|
①③口口 |③-④-|
口口⑤口 |--⑤-|
口口②口 |⑥-⑦-|
52
⑤①口口 |①-②-|
口③③⑥ |--③-|
口口口② |--④-|
口④④口 |⑤-⑥-|
53
口口口口 |①---|
口口口口 |--②-|
②①口口 |----|
口口口口 |----|
54
口②口口 |①---|
口口①口 |②-③-|
⑤口③口 |--④-|
口口口④ |--⑤-|
55
口①口口 |--①-|
口口②④ |②---|
口口口口 |③---|
口③口口 |--④-|
56
口口口口 |①---|
①口④口 |②-③-|
③口口② |----|
口口口口 |--④-|
57
口口口口 |①---|
口①口口 |②-③-|
口③②口 |----|
口口口④ |--④-|
58
①口口口 |①---|
②口口口 |②---|
③口口口 |③---|
④口口口 |④---|
59
口口口① |①---|
口口口② |②---|
口口口③ |③---|
口口口④ |④---|
60
⑤②③⑥ |①--②|
④①①④ |--③-|
⑤②③⑥ |④--⑤|
口口口口 |--⑥-|
61
口口口⑥ |①---|
⑤③②口 |②-③-|
口口④口 |④-⑤-|
①③②① |⑥---|
62
口口口口 |①---|
口口口口 |--②-|
①①口口 |----|
口口②② |----|
63
口口口口 |①---|
口①①口 |②-③-|
口②③口
口口口口

⑤④④⑤
⑥⑥口口
⑤口口⑤ |--④-|
口口口口 |⑤-⑥-|
64
口口口口 |①---|
口口①① |②-③-|
口口口口
③③②②

口口口④
口口口⑥
⑤口口口 |--④-|
口口口口 |⑤-⑥-|
65
①口口口 |①---|
②④②口 |②-③-|
口③④③ |--④-|
口口口口 |----|
66
④③②口 |①---|
口口口⑤ |②-③-|
②⑥口③ |--④-|
口①①口 |⑤-⑥-|
67
口口口口 |①---|
口②③口 |②-③-|
口口口口 |--④-|
口④④① |----|
68
④口口④ |①---|
③口口③ |②---|
②口口② |③---|
①口口① |④---|
69
口②③口 |①---|
口①①口 |②-③-|
④②③④ |--④-|
口④④口 |----|
70
①口口① |①---|
②口口③ |②-③-|
口口口口
②口口③

⑥口口口
口⑥口口
④口口⑤ |--④-|
口④⑤口 |⑤-⑥-|
71
口②③① |①---|
⑤⑤①口 |②-③-|
④②③④ |--④-|
口口口口 |--⑤-|
72
口口口口 |①---|
口口①① |②-③-|
口口口口
③③②②

口口口④
口口口⑥
⑤口口口 |--④-|
口口口口 |⑤-⑥-|
73
①口口口 |①---|
②④②口 |②-③-|
口③④③ |--④-|
口口口口 |----|
74
④③②口 |①---|
口口口⑤ |②-③-|
②⑥口③ |--④-|
口①①口 |⑤-⑥-|
75
⑤口口⑤ |①---|
口②③口 |②-③-|
口口口口 |--④-|
口④④① |--⑤-|
76
口口口口 |----|
①①口口 |----|
口②②口 |--①-|
口口③③ |②-③-|
77
②口口③ |--①-|
口口口① |--②-|
①④④② |--③-|
③口口口 |--④-|
78
口①口口 |----|
①②口口 |----|
口口②① |----|
口口①口 |①-②-|
79
口口①口 |--①-|
口口②① |②---|
①②口口 |----|
口①口口 |----|
80
口口口④ |--①-|
⑤①口口 |②-③-|
口口②⑥ |④-⑤-|
⑦③口口 |⑥-⑦-|
81
口口口口 |--①-|
口口③④ |②-③-|
⑤②口口 |--④-|
口口①⑥ |⑤-⑥-|
82
口⑦口口 |--①-|
口①口⑥ |②-③-|
⑤口②口 |④-⑤-|
口③④口 |⑥-⑦-|
83
⑦口口口 |--①-|
①口口⑥ |②-③-|
⑤口口② |④-⑤-|
口③④口 |⑥-⑦-|
84
口口口④ |--①-|
⑤①口口 |②-③-|
口口②⑥ |④-⑤-|
⑦③口口 |⑥-⑦-|
85
口口⑦口 |--①-|
口⑥③口 |②-③-|
口②⑤口 |④-⑤-|
口④①口 |⑥-⑦-|
86
①口口② |①---|
①口口② |--②-|
口口口口 |----|
口③③口 |③---|
87
口①①口 |①---|
②口口③ |②-③-|
②④④③ |--④-|
口口口口 |----|
88
口①①口 |①---|
②口口③ |②-③-|
口口口口 |--④-|
⑤④④口 |--⑤-|
89
④口口① |①-②-|
口⑤②口 |③-④-|
口③⑥⑧ |⑤-⑥-|
⑦口口口 |⑦-⑧-|
90
口①口口 |①---|
口口②口 |②-③-|
口③口口 |----|
口口口④ |④---|
91
口口口口 |-①----|
口口口口 |----|
口口口口 |----|
①口口口 |----|

不確定度: 0

最終更新:2014年09月02日 15:26