electro peaceful
Mr.T

BASIC

Level: 5
BPM: 160
Notes: 335

1
口口口口 |----|
口口口口 |----|
口口口口 |----|
口口口口 |----|
2
口②口② |①---|
口口口口 |----|
口口口口 |②---|
①①①① |----|
3
②口②口 |①---|
①口①口 |----|
口口口口 |②---|
口口口口 |----|
4
口②口② |①---|
口①口① |----|
口口口口 |②---|
口口口口 |----|
5
②口②口 |①---|
①口①口 |----|
口口口口 |②---|
口口口口 |----|
6
口②口② |①---|
口口口口 |----|
口口口口 |②---|
①①①① |----|
7
②口②口 |①---|
①口①口 |----|
口口口口 |②---|
口口口口 |----|
8
②口②口 |①---|
③①③① |②---|
④口④口 |③---|
口口口口 |④---|
9
口口口口 |①---|
口④口④ |②---|
口③口③ |③---|
①②①② |④---|
10
①①①① |①---|
②口②口 |②---|
口口口口 |----|
③口③口 |③---|
11
口①口① |----|
口口口口 |①---|
口②口② |----|
口口口口 |②---|
12
①口①口 |----|
口口口口 |①---|
②口②口 |----|
口口口口 |②---|
13
口口口口 |----|
口①口① |①---|
口口口口 |----|
口②口② |②---|
14
口口口口 |----|
①口①口 |①---|
口口口口 |----|
②口②口 |②---|
15
口①口① |----|
口口口口 |①---|
口②口② |----|
口口口口 |②---|
16
①口①口 |----|
口口口口 |①---|
②口②口 |----|
口口口口 |②---|
17
口口口口 |①---|
②②②② |----|
口口口口 |②---|
口①①口 |----|
18
口②①口 |①---|
口口口口 |----|
口①②口 |②---|
口口口口 |----|
19
②口口① |①---|
口口口口 |----|
①口口② |②---|
口口口口 |----|
20
口①①口 |①---|
口②②口 |②---|
口③③口 |③---|
口口口口 |----|
21
口口口口 |----|
口口口口 |----|
口口口口 |----|
口口口口 |----|
22
口口口口 |①---|
口②①口 |----|
口口口口 |②---|
口①②口 |----|
23
口口口口 |①---|
②口口① |----|
口口口口 |②---|
①口口② |----|
24
口口口口 |①---|
口①①口 |②---|
口②②口 |③---|
口③③口 |----|
25
口口口口 |----|
口口口口 |----|
口口口口 |----|
口口口口 |----|
26
口②①口 |①---|
口口口口 |----|
口①②口 |②---|
口口口口 |----|
27
②口口① |①---|
口口口口 |----|
①口口② |②---|
口口口口 |----|
28
口①①口 |①---|
口②②口 |②---|
口③③口 |③---|
口口口口 |----|
29
口口口口 |----|
①口口口 |----|
口口口口 |----|
口口口① |①---|
30
口口口口 |①---|
口②①口 |----|
口口口口 |②---|
口①②口 |----|
31
口口口口 |①---|
口②②① |----|
口③③口 |②---|
①口口口 |③---|
32
口口口口 |①---|
口口口口 |----|
口口口口 |----|
口①①口 |----|
33
口口口口 |----|
口口口口 |----|
口口口口 |----|
口口口口 |----|
34
口①②口 |①---|
口②①口 |----|
口口口口 |②---|
口口口口 |----|
35
口口口口 |①---|
口口口口 |----|
口①②口 |②---|
口②①口 |----|
36
②口口① |①---|
口口口口 |----|
①口口② |②---|
口口口口 |----|
37
口②①口 |①---|
口①②口 |②---|
口④③口 |③---|
口③④口 |④---|
38
口口口口 |①---|
口②②口 |----|
①口口① |②---|
口口口口 |----|
39
口口口口 |----|
口口口口 |----|
口②②口 |①---|
口①①口 |②---|
40
口口口口 |①---|
③①①③ |--②-|
口口口口 |③---|
②口口② |----|
41
④口口④ |①--②|
口口口口 |--③-|
③②②③ |④---|
口①①口 |----|
42
④④口口 |①---|
口③口口 |②---|
口口②② |③---|
口口口① |④---|
43
口③口③ |①---|
口口②口 |②---|
口口口① |③---|
口口口口 |----|
44
①口口口 |①---|
口②③口 |②---|
口口③口 |③---|
口口口④ |④---|
45
口口口口 |①---|
①口口口 |②---|
口②③口 |③---|
口口③口 |----|
46
口口口④ |①---|
口口③口 |②---|
口②口口 |③---|
①口口口 |④---|
47
口口口口 |①---|
口口口③ |②---|
口口②口 |③---|
口①口口 |----|
48
口口③④ |①---|
口②口口 |②---|
①口口口 |③---|
口口口口 |④---|
49
口口口口 |①---|
口口①口 |②---|
口②口口 |③---|
③口③口 |----|
50
④④口口 |①---|
口③口口 |②---|
口口②② |③---|
口口口① |④---|
51
口③口③ |①---|
口口②口 |②---|
口口口① |③---|
口口口口 |----|
52
①口口口 |①---|
口②③口 |②---|
口口③口 |③---|
口口口④ |④---|
53
口口口口 |①---|
①口口口 |②---|
口②③口 |③---|
口口③口 |----|
54
口口口口 |①---|
口①口口 |----|
口口②口 |②---|
口口口口 |----|
55
口口口① |①---|
口口②口 |②---|
口③口口 |③---|
④口口口 |④---|
56
④口③口 |①---|
口②口③ |②---|
①口口口 |③---|
口①口口 |④---|
57
口①口口 |①---|
①口口口 |----|
口口口口 |----|
口口口口 |----|
58
口口口口 |----|
口口口口 |----|
口口口口 |----|
口口口口 |----|
59
口口口口 |①---|
口口口口 |----|
口口口口 |----|
口①①口 |----|
60
口口口口 |①-②-|
口口口口 |----|
口②②口 |----|
口①①口 |----|
61
口口口口 |①-②-|
口③③口 |③---|
口②②口 |----|
口①①口 |----|
62
②口口① |①---|
口口口口 |----|
口口口口 |②---|
口口口口 |----|
63
口口口口 |①---|
口口口口 |----|
口口口口 |----|
口①①口 |----|
64
口口口口 |①-②-|
口口口口 |----|
口②②口 |----|
口①①口 |----|
65
口口口口 |①-②-|
口③③口 |③---|
口②②口 |----|
口①①口 |----|
66
口口口口 |①---|
口口口口 |----|
口口口口 |②---|
②口口① |----|
67
④④口口 |①---|
口③口口 |②---|
口口②② |③---|
口口口① |④---|
68
口口②① |①---|
口口②口 |②---|
④③口口 |③---|
④口口口 |④---|
69
口③口③ |①---|
口口②口 |②---|
口口口① |③---|
口口口口 |----|
70
口口口口 |----|
口口口口 |----|
口口口口 |----|
①口①口 |①---|
71
口④口③ |①---|
口口②口 |②---|
口①口口 |③---|
口口口口 |④---|
72
口口口口 |①---|
①④①口 |②---|
口口③口 |③---|
口口口② |④---|
73
①口①口 |①---|
口口口口 |----|
口口口口 |----|
口口口口 |----|
74
口口口口 |----|
口口口口 |----|
口口①口 |----|
口口①口 |①---|
75
口口口口 |①-②-|
口①②① |----|
口口口口 |----|
口口口③ |③---|
76
口口口口 |①---|
①口口① |②---|
口②②口 |③---|
③④④③ |④---|
77
①口口① |①---|
口④③② |②---|
口口口口 |③---|
口口口口 |④---|
78
口口口口 |①---|
①口口口 |②---|
②③④口 |③---|
口口口口 |④---|
79
④口口③ |①---|
口口口② |②---|
口口口① |③---|
口口口口 |④---|
80
口口口口 |①---|
口口口口 |----|
口口口口 |----|
①①①① |----|


不确定度: 0

最終更新:2012年11月08日 18:20